<?xml version="1.0" standalone="no"?>
<!DOCTYPE svg PUBLIC "-//W3C//DTD SVG 1.1//EN" "http://www.w3.org/Graphics/SVG/1.1/DTD/svg11.dtd" >
<svg xmlns="http://www.w3.org/2000/svg" xmlns:xlink="http://www.w3.org/1999/xlink" version="1.1">
<metadata>
Created by FontForge 20170731 at Wed Dec 14 11:11:52 2016
 By Aleksey,,,
Copyright 2011 The Philosopher Project Authors (lemonad@jovanny.ru)
</metadata>
<defs>
<font id="Philosopher-Regular" horiz-adv-x="530" >
  <font-face 
    font-family="Philosopher"
    font-weight="400"
    font-stretch="normal"
    units-per-em="1000"
    panose-1="0 0 5 0 0 0 0 0 0 0"
    ascent="800"
    descent="-200"
    x-height="470"
    cap-height="660"
    bbox="-404 -325 982 975"
    underline-thickness="50"
    underline-position="-200"
    unicode-range="U+000D-2215"
  />
<missing-glyph horiz-adv-x="542" 
d="M444 864v-1084h-343v1084h343zM361 791h-179v-35h71v-41h-72v-35h180v35h-72v41h72v35zM289 652h-108v-113h180v37h-72v76zM253 615v-39h-36v39h36zM361 510h-180v-36h72v-40h-72v-36h108v76h72v36zM361 444h-36v-71h-144v-37h180v108zM361 312h-108v-60h36v24h36v-50
h-108v86h-36v-122h180v122zM361 125h-180v-123h180v123zM325 89v-51h-108v51h108zM361 -23h-180v-35h76l-76 -51v-36h180v36h-111l76 51h35v35z" />
    <glyph glyph-name=".notdef" horiz-adv-x="542" 
d="M444 864v-1084h-343v1084h343zM361 791h-179v-35h71v-41h-72v-35h180v35h-72v41h72v35zM289 652h-108v-113h180v37h-72v76zM253 615v-39h-36v39h36zM361 510h-180v-36h72v-40h-72v-36h108v76h72v36zM361 444h-36v-71h-144v-37h180v108zM361 312h-108v-60h36v24h36v-50
h-108v86h-36v-122h180v122zM361 125h-180v-123h180v123zM325 89v-51h-108v51h108zM361 -23h-180v-35h76l-76 -51v-36h180v36h-111l76 51h35v35z" />
    <glyph glyph-name=".null" horiz-adv-x="0" 
 />
    <glyph glyph-name="nonmarkingreturn" unicode="&#xd;" horiz-adv-x="250" 
 />
    <glyph glyph-name="NULL" horiz-adv-x="0" 
 />
    <glyph glyph-name="NULL" horiz-adv-x="0" 
 />
    <glyph glyph-name="space" unicode=" " horiz-adv-x="250" 
 />
    <glyph glyph-name="exclam" unicode="!" horiz-adv-x="234" 
d="M88 155l-18 505h94l-18 -505h-58zM79 2q-16 16 -16 39q0 22 16 37.5t38 15.5t38 -15.5t16 -37.5q0 -23 -16 -39t-38 -16t-38 16z" />
    <glyph glyph-name="quotedbl" unicode="&#x22;" horiz-adv-x="366" 
d="M83 390l-30 270h100l-30 -270h-40zM243 390l-30 270h100l-30 -270h-40z" />
    <glyph glyph-name="numbersign" unicode="#" horiz-adv-x="668" 
d="M126 0l35 175h-130v60h144l36 180h-120v60h133l42 200h65l-42 -200h145l42 200h65l-42 -200h137v-60h-150l-37 -180h127v-60h-140l-35 -175h-65l35 175h-145l-35 -175h-65zM239 235h146l36 180h-145z" />
    <glyph glyph-name="dollar" unicode="$" horiz-adv-x="526" 
d="M236 -15q-78 9 -132.5 41t-54.5 79v107h18q15 -89 56.5 -134.5t112.5 -53.5v270l-70 42q-64 38 -90.5 77t-26.5 95q0 75 51.5 121.5t135.5 48.5v57h40v-59q73 -7 128 -39t55 -79v-107h-18q-15 89 -55 133t-110 52v-253l85 -50q68 -41 96 -76t28 -89q0 -85 -55.5 -135
t-153.5 -50v-63h-40v65zM236 638q-45 -2 -77 -30t-32 -71q0 -41 24.5 -67.5t84.5 -62.5v231zM363.5 52q35.5 27 35.5 73q0 42 -26 73t-84 65l-13 7v-247q52 2 87.5 29z" />
    <glyph glyph-name="percent" unicode="%" horiz-adv-x="674" 
d="M70.5 430.5q-38.5 35.5 -38.5 99.5t38.5 99.5t106.5 35.5t106.5 -35.5t38.5 -99.5t-38.5 -99.5t-106.5 -35.5t-106.5 35.5zM72 0l455 660h75l-455 -660h-75zM262 530q0 100 -85 100t-85 -100t85 -100t85 100zM390.5 30.5q-38.5 35.5 -38.5 99.5t38.5 99.5t106.5 35.5
t106.5 -35.5t38.5 -99.5t-38.5 -99.5t-106.5 -35.5t-106.5 35.5zM582 130q0 100 -85 100t-85 -100t85 -100t85 100z" />
    <glyph glyph-name="ampersand" unicode="&#x26;" horiz-adv-x="616" 
d="M96.5 24.5q-54.5 44.5 -54.5 115.5q0 39 19 70.5t45.5 54.5t78.5 61q-33 30 -52 56q-23 29 -37 65.5t-14 76.5q0 72 48.5 114t131.5 42q77 0 121 -39t44 -101q0 -44 -19 -78.5t-49 -61.5t-78 -60l201 -220q36 39 66 85q15 24 24 40l20 -15q-11 -23 -22 -42
q-30 -51 -67 -91l89 -97h-110l-40 43q-84 -63 -190 -63q-101 0 -155.5 44.5zM318.5 448.5q23.5 35.5 23.5 81.5q0 58 -24.5 86.5t-55.5 28.5q-35 0 -60 -29t-25 -92q0 -35 15 -67.5t33 -54.5t25 -27q45 38 68.5 73.5zM421 66l-206 225q-38 -33 -58 -66t-20 -75
q0 -135 134 -135q84 0 150 51z" />
    <glyph glyph-name="quotesingle" unicode="'" horiz-adv-x="206" 
d="M83 390l-30 270h100l-30 -270h-40z" />
    <glyph glyph-name="parenleft" unicode="(" horiz-adv-x="309" 
d="M96 -9.5q-62 105.5 -62 249.5t62 249.5t188 200.5l10 -15q-170 -149 -170 -435t170 -435l-10 -15q-126 95 -188 200.5z" />
    <glyph glyph-name="parenright" unicode=")" horiz-adv-x="309" 
d="M15 -195q170 149 170 435t-170 435l10 15q126 -95 188 -200.5t62 -249.5t-62 -249.5t-188 -200.5z" />
    <glyph glyph-name="asterisk" unicode="*" horiz-adv-x="424" 
d="M172 330l30 150l-115 -105l-40 70l145 50l-145 50l40 70l115 -105l-30 150h80l-30 -150l115 105l40 -70l-145 -50l145 -50l-40 -70l-115 105l30 -150h-80z" />
    <glyph glyph-name="plus" unicode="+" 
d="M235 100v200h-200v60h200v200h60v-200h200v-60h-200v-200h-60z" />
    <glyph glyph-name="comma" unicode="," horiz-adv-x="237" 
d="M61 -140q40 27 60 59.5t20 75.5l-30 -10q-23 0 -39 16t-16 39q0 26 17 43t43 17q30 0 47.5 -18.5t17.5 -51.5q0 -123 -110 -185z" />
    <glyph glyph-name="hyphen" unicode="-" horiz-adv-x="387" 
d="M66 230v70h255v-70h-255z" />
    <glyph glyph-name="period" unicode="." horiz-adv-x="220" 
d="M72 2q-16 16 -16 39q0 22 16 38t38 16q23 0 38.5 -16t15.5 -38q0 -23 -16 -39t-38 -16t-38 16z" />
    <glyph glyph-name="slash" unicode="/" horiz-adv-x="440" 
d="M23 0l321 660h73l-321 -660h-73z" />
    <glyph glyph-name="zero" unicode="0" horiz-adv-x="584" 
d="M52 330q0 350 240 350t240 -350t-240 -350t-240 350zM376.5 53q30.5 33 43 100.5t12.5 176.5t-12.5 176.5t-43 100.5t-84.5 33t-84.5 -33t-43 -100.5t-12.5 -176.5t12.5 -176.5t43 -100.5t84.5 -33t84.5 33z" />
    <glyph glyph-name="one" unicode="1" horiz-adv-x="305" 
d="M129 0v560l-97 -63l-18 23l155 140h50v-660h-90z" />
    <glyph glyph-name="two" unicode="2" 
d="M41 50q53 51 81 77q99 95 145 145t72.5 103t26.5 115q0 72 -37.5 111t-92.5 39q-61 0 -105.5 -44t-59.5 -126h-20q0 50 4 79.5t20 50.5q28 34 80.5 57t110.5 23q79 0 139.5 -41.5t60.5 -148.5q0 -63 -29.5 -118t-76 -102.5t-131.5 -122.5q-88 -79 -118 -107h225
q61 0 93 26t32 79h20v-65q0 -80 -85 -80h-355v50z" />
    <glyph glyph-name="three" unicode="3" 
d="M139.5 7.5q-54.5 27.5 -99.5 79.5l16 18q39 -43 84 -64t101 -21q65 0 107.5 41.5t42.5 123.5q0 50 -19 85t-49 52.5t-62 17.5q-42 0 -62 -3t-58 -12l-26 42l271 253h-185q-61 0 -93 -26t-32 -79h-20v65q0 80 85 80h318v-40l-268 -250q39 10 90 10q40 0 88 -16.5t85 -60
t37 -118.5q0 -80 -37.5 -126t-88.5 -62.5t-99 -16.5q-72 0 -126.5 27.5z" />
    <glyph glyph-name="four" unicode="4" horiz-adv-x="546" 
d="M338 0v170h-320v40l330 450h80v-450h90v-40h-90v-170h-90zM78 210h260v354z" />
    <glyph glyph-name="five" unicode="5" 
d="M136 6q-50 26 -94 79l19 17q38 -42 82 -62t99 -20q65 0 107.5 41.5t42.5 123.5q0 77 -41.5 116t-118.5 39q-45 0 -85 -5l-40 -5l-40 40l10 290h375v-40h-293l-9 -245l32 2q57 3 70 3q96 0 168 -43.5t72 -151.5q0 -79 -38.5 -124.5t-91.5 -63t-105 -17.5q-71 0 -121 26z
" />
    <glyph glyph-name="six" unicode="6" horiz-adv-x="537" 
d="M108 67q-56 87 -56 263q0 175 61.5 262.5t188.5 87.5q75 0 155 -30l-5 -20q-62 10 -130 10q-88 0 -131.5 -67.5t-43.5 -187.5q30 21 65.5 33t84.5 12q102 0 151 -59.5t49 -165.5q0 -60 -24 -111t-73 -82.5t-118 -31.5q-118 0 -174 87zM369.5 75q32.5 55 32.5 130
q0 185 -135 185q-36 0 -64 -12.5t-56 -37.5q0 -165 36 -242.5t99 -77.5q55 0 87.5 55z" />
    <glyph glyph-name="seven" unicode="7" horiz-adv-x="474" 
d="M371 620h-200q-61 0 -93 -26t-32 -79h-20v65q0 80 85 80h350v-40l-250 -620h-90z" />
    <glyph glyph-name="eight" unicode="8" horiz-adv-x="554" 
d="M112 22.5q-65 42.5 -65 127.5q0 68 43.5 110.5t116.5 74.5q-65 38 -100 76.5t-35 98.5q0 91 56.5 130.5t148.5 39.5q91 0 148 -38t57 -122q0 -55 -35 -96.5t-90 -68.5q48 -29 78.5 -53t51 -59t20.5 -83q0 -92 -64.5 -136t-165.5 -44q-100 0 -165 42.5zM367.5 437.5
q19.5 31.5 19.5 82.5q0 65 -32 92.5t-78 27.5q-45 0 -77.5 -26t-32.5 -84q0 -82 145 -150q36 26 55.5 57.5zM372.5 51.5q39.5 31.5 39.5 88.5q0 40 -21 71t-53.5 53.5t-85.5 50.5q-52 -26 -81 -62.5t-29 -102.5q0 -64 39 -97t96 -33q56 0 95.5 31.5z" />
    <glyph glyph-name="nine" unicode="9" horiz-adv-x="536" 
d="M79 10l5 20q62 -10 130 -10q88 0 131.5 67.5t43.5 187.5q-30 -21 -65.5 -33t-84.5 -12q-102 0 -151 59.5t-49 165.5q0 60 24 111t73 82.5t118 31.5q118 0 174 -87.5t56 -262.5t-61.5 -262.5t-188.5 -87.5q-75 0 -155 30zM333 282.5q28 12.5 56 37.5q0 165 -36 242.5
t-99 77.5q-55 0 -87.5 -55t-32.5 -130q0 -185 135 -185q36 0 64 12.5z" />
    <glyph glyph-name="colon" unicode=":" horiz-adv-x="241" 
d="M83 368.5q-16 15.5 -16 38.5q0 22 16 38t38 16q23 0 38.5 -16t15.5 -38q0 -23 -15.5 -38.5t-38.5 -15.5q-22 0 -38 15.5zM82 2q-16 16 -16 39q0 22 16 38t38 16q23 0 39 -16t16 -38q0 -23 -16 -39t-39 -16q-22 0 -38 16z" />
    <glyph glyph-name="semicolon" unicode=";" horiz-adv-x="258" 
d="M92 369.5q-16 15.5 -16 38.5q0 22 16 37.5t39 15.5q22 0 38 -15.5t16 -37.5q0 -23 -16 -38.5t-38 -15.5q-23 0 -39 15.5zM70 -140q42 33 61.5 63.5t19.5 76.5q-15 -15 -35 -15q-23 0 -36.5 15.5t-13.5 39.5q0 23 18 41.5t47 18.5q27 0 43.5 -21.5t16.5 -58.5
q0 -53 -25 -93t-85 -81z" />
    <glyph glyph-name="less" unicode="&#x3c;" horiz-adv-x="618" 
d="M550 95l-520 225v30l520 225v-60l-417 -180l417 -180v-60z" />
    <glyph glyph-name="equal" unicode="=" horiz-adv-x="657" 
d="M66 390v60h525v-60h-525zM66 210v60h525v-60h-525z" />
    <glyph glyph-name="greater" unicode="&#x3e;" horiz-adv-x="618" 
d="M68 95v60l417 180l-417 180v60l520 -225v-30z" />
    <glyph glyph-name="question" unicode="?" horiz-adv-x="478" 
d="M225.5 249q18.5 37 53.5 82q34 43 50.5 76.5t16.5 82.5q0 72 -37.5 111t-92.5 39q-62 0 -106.5 -44.5t-59.5 -125.5h-20q0 50 4 79.5t21 50.5q28 34 80.5 57t110.5 23q79 0 139.5 -41.5t60.5 -148.5q0 -42 -15 -75t-36 -57t-57 -58q-45 -40 -68 -71t-24 -73h-40
q1 56 19.5 93zM187.5 3q-15.5 16 -15.5 38q0 23 15.5 39t38.5 16t39 -16t16 -39q0 -22 -16.5 -38t-38.5 -16q-23 0 -38.5 16z" />
    <glyph glyph-name="at" unicode="@" horiz-adv-x="856" 
d="M226 -130.5q-88 49.5 -137 146.5t-49 234t49 234t137 146.5t204 49.5q115 0 203.5 -48.5t137.5 -141t49 -220.5q0 -124 -48.5 -194.5t-146.5 -70.5q-81 0 -105 55h-5q-18 -23 -53 -39t-87 -16q-32 0 -65 13.5t-56.5 44.5t-23.5 82q0 76 70.5 108t184.5 32h30
q0 97 -27 133.5t-78 36.5q-45 0 -72 -19t-38 -66h-45q0 34 4 53.5t21 36.5q18 18 59.5 26.5t90.5 8.5q81 0 128 -43.5t47 -166.5v-180q0 -25 12.5 -42.5t37.5 -17.5q33 0 61.5 27.5t46 78.5t17.5 119q0 118 -43 201t-122 126t-185 43q-107 0 -185.5 -44t-121.5 -131.5
t-43 -214.5t43 -214.5t121.5 -131.5t185.5 -44q97 0 173 21t137 64l20 -30q-136 -95 -330 -95q-116 0 -204 49.5zM475 66q22 16 40 44v135h-30q-74 0 -117 -27.5t-43 -72.5q0 -46 27.5 -70.5t67.5 -24.5q33 0 55 16z" />
    <glyph glyph-name="A" unicode="A" horiz-adv-x="635" 
d="M527 21.5q-47 26.5 -75 103.5l-25 65h-280l-80 -190h-45l280 660h30l220 -535q25 -58 47 -79.5t63 -25.5v-20q-18 -5 -40 -5q-48 0 -95 26.5zM162 230h245l-120 290z" />
    <glyph glyph-name="B" unicode="B" horiz-adv-x="622" 
d="M106 540q0 51 -14 75.5t-56 24.5h-20v20h260q109 0 189.5 -36t80.5 -139q0 -47 -32 -85t-98 -60q92 -15 128.5 -54.5t36.5 -105.5q0 -101 -79.5 -140.5t-195.5 -39.5h-200v540zM291 355q41 0 77.5 15.5t59.5 46t23 73.5q0 45 -27 75.5t-68.5 45t-84.5 14.5q-35 0 -75 -10
v-260h95zM431.5 71q49.5 36 49.5 104t-48.5 104t-141.5 36h-95v-266q48 -14 95 -14q91 0 140.5 36z" />
    <glyph glyph-name="C" unicode="C" horiz-adv-x="665" 
d="M190.5 25q-70.5 45 -108.5 122.5t-38 172.5q0 98 41.5 181t113 131t155.5 48q80 0 140.5 -22.5t89.5 -57.5q17 -21 21 -55.5t4 -94.5h-20q-19 97 -70 143.5t-135 46.5q-108 0 -174 -76t-66 -244q0 -79 25.5 -147t79.5 -110.5t135 -42.5q73 0 127.5 35t97.5 105l20 -15
q-46 -90 -113.5 -127.5t-161.5 -37.5q-93 0 -163.5 45z" />
    <glyph glyph-name="D" unicode="D" horiz-adv-x="715" 
d="M106 540q0 51 -14 75.5t-56 24.5h-20v20h262q194 0 293.5 -86t99.5 -240q0 -99 -42 -174.5t-124.5 -117.5t-200.5 -42h-198v540zM434.5 71.5q59.5 36.5 93.5 103t34 155.5q0 87 -33.5 154t-93.5 104t-136 37q-48 0 -100 -16v-561q56 -13 102 -13q74 0 133.5 36.5z" />
    <glyph glyph-name="E" unicode="E" horiz-adv-x="590" 
d="M106 540q0 51 -14 75.5t-56 24.5h-20v20h426q85 0 85 -80v-75h-20q0 115 -125 115h-186v-260h270v-40h-270v-280h175q69 0 108 25t62 85l20 -5l-35 -95q-18 -50 -75 -50h-345v540z" />
    <glyph glyph-name="F" unicode="F" horiz-adv-x="527" 
d="M106 540q0 51 -14 75.5t-56 24.5h-20v20h399q85 0 85 -80v-75h-20q0 115 -125 115h-159v-265h226v-40h-226v-315h-90v540z" />
    <glyph glyph-name="G" unicode="G" horiz-adv-x="720" 
d="M208.5 28q-77.5 48 -121 130.5t-43.5 181.5q0 95 38 172.5t108.5 122.5t163.5 45q86 0 148.5 -22.5t91.5 -57.5q16 -20 20.5 -53t4.5 -82h-20q-19 88 -72 131.5t-143 43.5q-81 0 -135 -42.5t-79.5 -110.5t-25.5 -147q0 -169 66 -244.5t174 -75.5q51 0 87 9t68 26v174
q0 34 11 59t47.5 41.5t106.5 16.5v-20q-45 0 -60 -23t-15 -72v-188q-54 -33 -113 -48t-132 -15q-98 0 -175.5 48z" />
    <glyph glyph-name="H" unicode="H" horiz-adv-x="693" 
d="M106 540q0 51 -14 75.5t-56 24.5h-20v20h90q37 0 55.5 -9.5t26.5 -34.5t8 -76v-180h300v300h90v-540q0 -51 14 -75.5t56 -24.5h20v-20h-90q-37 0 -55.5 9.5t-26.5 34.5t-8 76v200h-300v-320h-90v540z" />
    <glyph glyph-name="I" unicode="I" horiz-adv-x="285" 
d="M123.5 9.5q-18.5 9.5 -26.5 34.5t-8 76v540h90v-540q0 -51 14 -75.5t56 -24.5h20v-20h-90q-37 0 -55.5 9.5z" />
    <glyph glyph-name="J" unicode="J" horiz-adv-x="261" 
d="M-9 -117q48 0 71.5 51t23.5 144v582h90v-582q0 -78 -16.5 -124.5t-56.5 -68.5t-112 -22v20z" />
    <glyph glyph-name="K" unicode="K" horiz-adv-x="677" 
d="M523 15.5q-51 25.5 -117 94.5l-210 220v-330h-90v540q0 51 -14 75.5t-56 24.5h-20v20h90q37 0 55.5 -9.5t26.5 -34.5t8 -76v-195l210 210l20 21q28 29 47 45.5t45 27.5t58 11h50v-25q-42 0 -73 -14.5t-72 -55.5l-195 -195l230 -240q44 -45 89 -75.5t81 -35.5v-19
q-30 -10 -65 -10q-47 0 -98 25.5z" />
    <glyph glyph-name="L" unicode="L" horiz-adv-x="558" 
d="M106 540q0 51 -14 75.5t-56 24.5h-20v20h90q37 0 55.5 -9.5t26.5 -34.5t8 -76v-500h355v-40h-445v540z" />
    <glyph glyph-name="M" unicode="M" horiz-adv-x="855" 
d="M729 -23q-40 22 -56.5 68.5t-16.5 124.5v385l-250 -555h-20l-260 565v-565h-40v660h95l240 -520l235 520h90v-490q0 -93 23.5 -144t71.5 -51v-20q-72 0 -112 22z" />
    <glyph glyph-name="N" unicode="N" horiz-adv-x="685" 
d="M150 525v-525h-40v540q0 48 -20.5 74t-69.5 26h-10v20h65q46 0 78 -15t57 -45l350 -435v495h40v-670h-20z" />
    <glyph glyph-name="O" unicode="O" horiz-adv-x="712" 
d="M192.5 26q-70.5 46 -108.5 126t-38 178t38 178t108.5 126t163.5 46t163.5 -46t108.5 -126t38 -178t-38 -178t-108.5 -126t-163.5 -46t-163.5 46zM468.5 58q47.5 38 72.5 107.5t25 164.5t-25 164.5t-72.5 107.5t-112.5 38t-112.5 -38t-72.5 -107.5t-25 -164.5t25 -164.5
t72.5 -107.5t112.5 -38t112.5 38z" />
    <glyph glyph-name="P" unicode="P" horiz-adv-x="552" 
d="M106 540q0 51 -14 75.5t-56 24.5h-20v20h260q96 0 173 -41t77 -159q0 -78 -40 -120t-89.5 -56t-90.5 -14h-110v-270h-90v540zM339 321.5q36 16.5 61.5 52.5t25.5 91t-25.5 91t-61.5 52.5t-68 16.5q-35 0 -75 -10v-300q40 -10 75 -10q32 0 68 16.5z" />
    <glyph glyph-name="Q" unicode="Q" horiz-adv-x="714" 
d="M456 -160q-102 45 -189 153q-102 30 -161 122t-59 215q0 98 38 178t108.5 126t163.5 46t163.5 -46t108.5 -126t38 -178q0 -126 -61.5 -218.5t-166.5 -120.5q15 -48 55 -88.5t90 -64t93 -23.5v-20q-119 0 -221 45zM469.5 58q47.5 38 72.5 107.5t25 164.5t-25 164.5
t-72.5 107.5t-112.5 38t-112.5 -38t-72.5 -107.5t-25 -164.5t25 -164.5t72.5 -107.5t112.5 -38t112.5 38z" />
    <glyph glyph-name="R" unicode="R" horiz-adv-x="595" 
d="M453.5 21.5q-39.5 31.5 -87.5 113.5l-100 170h-70v-305h-90v540q0 51 -14 75.5t-56 24.5h-20v20h260q95 0 172.5 -37.5t77.5 -142.5q0 -133 -160 -170l105 -175q37 -62 66.5 -86.5t68.5 -28.5v-20q-9 -4 -25.5 -7t-34.5 -3q-53 0 -92.5 31.5zM338.5 355q36.5 15 62 47
t25.5 78q0 49 -25.5 81.5t-62 48t-67.5 15.5q-35 0 -75 -10v-265q40 -10 75 -10q31 0 67.5 15z" />
    <glyph glyph-name="S" unicode="S" horiz-adv-x="533" 
d="M174 -2q-53 15 -86.5 43t-33.5 64v107h18q17 -100 66 -144.5t135 -44.5q54 0 92.5 27t38.5 75q0 42 -26 73t-84 65l-123 73q-64 38 -90.5 77t-26.5 95q0 77 53.5 123.5t140.5 46.5q51 0 101 -14.5t82.5 -42t32.5 -63.5v-107h-18q-17 100 -64.5 143.5t-133.5 43.5
q-46 0 -81 -28t-35 -73q0 -41 25.5 -68t85.5 -63l123 -73q68 -41 96 -76t28 -89q0 -84 -56 -134.5t-152 -50.5q-55 0 -108 15z" />
    <glyph glyph-name="T" unicode="T" horiz-adv-x="583" 
d="M256 620h-90q-125 0 -125 -115h-20v75q0 80 85 80h465v-40h-225v-620h-90v620z" />
    <glyph glyph-name="U" unicode="U" horiz-adv-x="687" 
d="M202 22.5q-56 32.5 -79.5 96.5t-23.5 166v255q0 51 -14 75.5t-56 24.5h-20v20h90q37 0 55.5 -9.5t26.5 -34.5t8 -76v-285q0 -111 41 -168t136 -57q76 0 120.5 27t63.5 82t19 146v375h40v-375q0 -104 -22 -167.5t-77.5 -95.5t-155.5 -32q-96 0 -152 32.5z" />
    <glyph glyph-name="V" unicode="V" horiz-adv-x="640" 
d="M81 543q-25 58 -47 79.5t-63 25.5v20q5 0 14.5 1t19.5 1q50 0 96 -25.5t78 -101.5l171 -403l59 137q42 97 161 383h48l-287 -670h-18z" />
    <glyph glyph-name="W" unicode="W" horiz-adv-x="866" 
d="M78 543q-20 58 -42.5 79.5t-67.5 25.5v20q5 0 14.5 1t19.5 1q55 0 99.5 -25t71.5 -102l134 -386l107 317l-24 69q-20 58 -42.5 79.5t-67.5 25.5v20q5 0 14.5 1t19.5 1q55 0 99.5 -25t71.5 -102l134 -386l171 503h43l-229 -670h-20l-148 421l-144 -421h-20z" />
    <glyph glyph-name="X" unicode="X" horiz-adv-x="667" 
d="M291 325l-140 205q-24 35 -42 55.5t-47 36.5t-71 18v20h120q44 0 74 -28.5t66 -81.5l100 -150l200 260h50l-225 -295l160 -235q31 -46 66.5 -76.5t78.5 -33.5v-20h-105q-43 0 -76 30.5t-64 79.5l-120 180l-225 -290h-50z" />
    <glyph glyph-name="Y" unicode="Y" horiz-adv-x="628" 
d="M290 273l-170 257q-26 37 -44 58t-42.5 35.5t-58.5 16.5v20h90q50 0 84 -29.5t66 -80.5l145 -225l209 335h45l-234 -380v-280h-90v273z" />
    <glyph glyph-name="Z" unicode="Z" horiz-adv-x="591" 
d="M24 20l415 600h-240q-125 0 -125 -115h-20v75q0 80 85 80h435l-425 -620h410v-40h-535v20z" />
    <glyph glyph-name="bracketleft" unicode="[" horiz-adv-x="316" 
d="M75 -200v880h215v-40h-135v-800h135v-40h-215z" />
    <glyph glyph-name="backslash" unicode="\" horiz-adv-x="440" 
d="M344 0l-321 660h73l321 -660h-73z" />
    <glyph glyph-name="bracketright" unicode="]" horiz-adv-x="316" 
d="M26 -200v40h135v800h-135v40h215v-880h-215z" />
    <glyph glyph-name="asciicircum" unicode="^" horiz-adv-x="490" 
d="M20 330l215 350h20l215 -350h-67l-158 257l-158 -257h-67z" />
    <glyph glyph-name="underscore" unicode="_" horiz-adv-x="432" 
d="M16 -60v60h400v-60h-400z" />
    <glyph glyph-name="grave" unicode="`" horiz-adv-x="200" 
d="M130 480l-110 200h100l60 -200h-50z" />
    <glyph glyph-name="a" unicode="a" horiz-adv-x="481" 
d="M119 3.5q-33 13.5 -56.5 44.5t-23.5 82q0 76 70.5 108t184.5 32h30q0 98 -27 134t-78 36q-45 0 -72 -19t-38 -66h-45q0 34 4 53.5t21 36.5q18 18 59.5 26.5t90.5 8.5q81 0 128 -43.5t47 -166.5v-270h-50l-35 45h-5q-18 -23 -53 -39t-87 -16q-32 0 -65 13.5zM284 51
q22 16 40 44v135h-30q-74 0 -117 -27.5t-43 -72.5q0 -46 27.5 -70.5t67.5 -24.5q33 0 55 16z" />
    <glyph glyph-name="b" unicode="b" horiz-adv-x="523" 
d="M213 6q-33 16 -51 39h-5l-35 -45h-50v540q0 51 -14 75.5t-56 24.5h-20v20h90q37 0 55.5 -9.5t26.5 -34.5t8 -76v-90q29 14 58 22t67 8q93 0 141.5 -69t48.5 -176q0 -106 -47 -175.5t-133 -69.5q-51 0 -84 16zM353 86.5q29 56.5 29 148.5q0 93 -30.5 149t-94.5 56
q-21 0 -43 -8t-52 -22v-320q18 -27 42.5 -43.5t62.5 -16.5q57 0 86 56.5z" />
    <glyph glyph-name="c" unicode="c" horiz-adv-x="483" 
d="M143.5 22.5q-49.5 32.5 -74 88t-24.5 124.5t24.5 124.5t74 88t121.5 32.5q110 0 145 -35q17 -17 21 -41.5t4 -88.5h-20q-4 62 -39 93.5t-91 31.5q-72 0 -108.5 -57t-36.5 -148t36.5 -148t108.5 -57q51 0 84 19.5t61 60.5l20 -15q-33 -56 -78 -80.5t-107 -24.5
q-72 0 -121.5 32.5z" />
    <glyph glyph-name="d" unicode="d" horiz-adv-x="524" 
d="M93.5 59q-46.5 69 -46.5 176t48.5 176t141.5 69q38 0 67 -8t58 -22v90q0 51 -14 75.5t-56 24.5h-20v20h90q37 0 55.5 -9.5t26.5 -34.5t8 -76v-540h-50l-35 45h-5q-22 -25 -51.5 -40t-83.5 -15q-87 0 -133.5 69zM319 45q21 15 43 45v320q-30 14 -52 22t-43 8
q-64 0 -94.5 -56t-30.5 -149q0 -92 29 -148.5t86 -56.5q41 0 62 15z" />
    <glyph glyph-name="e" unicode="e" horiz-adv-x="488" 
d="M140 22.5q-47 32.5 -71 88t-24 124.5q0 68 24 124t69.5 88.5t106.5 32.5q101 0 150.5 -56.5t49.5 -163.5l-2 -40h-303q0 -84 36 -137t99 -53q47 0 79.5 20t60.5 60l20 -15q-33 -55 -77 -80t-103 -25q-68 0 -115 32.5zM350 260q0 88 -26 134t-79 46q-30 0 -54 -23.5
t-37.5 -64.5t-13.5 -92h210z" />
    <glyph glyph-name="f" unicode="f" horiz-adv-x="337" 
d="M91 430h-70v40h70v30q0 170 175 170q63 0 85 -15q17 -13 35 -45l-30 -25q-30 45 -95 45q-80 0 -80 -130v-30h140v-40h-140v-430h-90v430z" />
    <glyph glyph-name="g" unicode="g" horiz-adv-x="492" 
d="M85.5 -163q-59.5 37 -59.5 118q0 46 31 80t79 50q-40 22 -40 60q0 20 9 31t26 24q-32 16 -53.5 50t-21.5 80q0 150 190 150h185v-25l-65 -10v-5q31 -16 50.5 -44.5t19.5 -65.5q0 -150 -190 -150q-105 0 -105 -35t105 -35q97 0 158.5 -38.5t61.5 -116.5q0 -81 -59.5 -118
t-160.5 -37t-160.5 37zM318.5 242.5q27.5 27.5 27.5 87.5q0 57 -27.5 86t-72.5 29t-72.5 -27.5t-27.5 -87.5t27.5 -87.5t72.5 -27.5t72.5 27.5zM341 -131.5q35 28.5 35 86.5q0 100 -120 115l-55 5q-41 -16 -63 -45t-22 -75q0 -58 35 -86.5t95 -28.5t95 28.5z" />
    <glyph glyph-name="h" unicode="h" horiz-adv-x="529" 
d="M72 540q0 51 -14 75.5t-56 24.5h-20v20h90q37 0 55.5 -9.5t26.5 -34.5t8 -76v-110q21 21 54.5 35.5t75.5 14.5q75 0 122.5 -40t47.5 -140v-300h-90v300q0 70 -31.5 102.5t-78.5 32.5q-53 0 -100 -53v-382h-90v540z" />
    <glyph glyph-name="i" unicode="i" horiz-adv-x="246" 
d="M85.5 549q-16.5 19 -16.5 45q0 21 12.5 33t33.5 12q23 0 39.5 -19t16.5 -45q0 -21 -12.5 -33t-33.5 -12q-23 0 -39.5 19zM87 350q0 51 -14 75.5t-56 24.5h-20v20h90q37 0 55.5 -9.5t26.5 -34.5t8 -76v-350h-90v350z" />
    <glyph glyph-name="j" unicode="j" horiz-adv-x="246" 
d="M85.5 549q-16.5 19 -16.5 45q0 21 12.5 33t33.5 12q23 0 39.5 -19t16.5 -45q0 -21 -12.5 -33t-33.5 -12q-23 0 -39.5 19zM-8 -170q48 0 71.5 51t23.5 144v325q0 51 -14 75.5t-56 24.5h-20v20h90q37 0 55.5 -9.5t26.5 -34.5t8 -76v-325q0 -78 -16.5 -124.5t-56.5 -68.5
t-112 -22v20z" />
    <glyph glyph-name="k" unicode="k" horiz-adv-x="485" 
d="M282 70l-120 160v-230h-90v540q0 51 -14 75.5t-56 24.5h-20v20h90q37 0 55.5 -9.5t26.5 -34.5t8 -76v-295l125 160q26 32 55 48.5t75 16.5h30v-25q-27 0 -52 -11t-43 -34l-110 -140l125 -160q29 -38 54.5 -57t55.5 -24v-19q-22 -10 -50 -10q-85 0 -145 80z" />
    <glyph glyph-name="l" unicode="l" horiz-adv-x="242" 
d="M76 540q0 51 -14 75.5t-56 24.5h-20v20h90q37 0 55.5 -9.5t26.5 -34.5t8 -76v-540h-90v540z" />
    <glyph glyph-name="m" unicode="m" horiz-adv-x="785" 
d="M87 350q0 51 -14 75.5t-56 24.5h-20v20h90q37 0 56.5 -10t28.5 -30h5q21 21 54.5 35.5t75.5 14.5t72 -15.5t48 -54.5q26 33 66.5 51.5t83.5 18.5q64 0 102 -40t38 -140v-300h-90v300q0 72 -20 103.5t-60 31.5q-28 0 -59 -20.5t-46 -44.5q5 -15 5 -70v-300h-90v300
q0 72 -20 103.5t-60 31.5q-53 0 -100 -53v-382h-90v350z" />
    <glyph glyph-name="n" unicode="n" horiz-adv-x="544" 
d="M87 350q0 51 -14 75.5t-56 24.5h-20v20h90q37 0 56.5 -10t28.5 -30h5q21 21 54.5 35.5t75.5 14.5q75 0 122.5 -40t47.5 -140v-300h-90v300q0 70 -31.5 102.5t-78.5 32.5q-53 0 -100 -53v-382h-90v350z" />
    <glyph glyph-name="o" unicode="o" 
d="M147 22.5q-50 32.5 -76 88.5t-26 124t26 124t76 88.5t118 32.5t118 -32.5t76 -88.5t26 -124t-26 -124t-76 -88.5t-118 -32.5t-118 32.5zM330.5 57q28.5 27 44 74t15.5 104t-15.5 104t-44 74t-65.5 27t-65.5 -27t-44 -74t-15.5 -104t15.5 -104t44 -74t65.5 -27t65.5 27z
" />
    <glyph glyph-name="p" unicode="p" horiz-adv-x="538" 
d="M87 350q0 51 -14 75.5t-56 24.5h-20v20h90q38 0 57.5 -10.5t27.5 -34.5h5q18 23 51 39t84 16q86 0 133 -69.5t47 -175.5q0 -107 -48.5 -176t-141.5 -69q-38 0 -67 8t-58 22v-210h-90v540zM366.5 86q30.5 56 30.5 149q0 92 -29 148.5t-86 56.5q-67 0 -105 -60v-320
q30 -14 52 -22t43 -8q64 0 94.5 56z" />
    <glyph glyph-name="q" unicode="q" horiz-adv-x="524" 
d="M362 20q-29 -14 -58 -22t-67 -8q-93 0 -141.5 69t-48.5 176t46.5 176t133.5 69q51 0 84 -16t51 -39h5l35 45h50v-660h-90v210zM310 38q22 8 52 22v320q-21 28 -44 44t-61 16q-57 0 -86 -56.5t-29 -148.5q0 -93 30.5 -149t94.5 -56q21 0 43 8z" />
    <glyph glyph-name="r" unicode="r" horiz-adv-x="397" 
d="M80 350q0 51 -14 75.5t-56 24.5h-10v20h80q38 0 57.5 -10.5t27.5 -34.5h5q18 23 48.5 39t71.5 16q40 0 60 -15q17 -13 35 -45l-40 -30q-11 15 -32 22.5t-48 7.5q-30 0 -55 -13.5t-40 -36.5v-370h-90v350z" />
    <glyph glyph-name="s" unicode="s" horiz-adv-x="446" 
d="M74 30q-17 17 -21 38.5t-4 66.5h20q9 -50 43.5 -77.5t96.5 -27.5q55 0 82.5 19t27.5 51q0 29 -21.5 50t-68.5 40l-60 25q-60 24 -90 56t-30 79q0 61 46 95.5t119 34.5q110 0 150 -40q17 -17 21 -38t4 -67h-20q-8 50 -42 77.5t-93 27.5q-47 0 -73.5 -19.5t-26.5 -50.5
q0 -52 80 -85l60 -25q68 -28 99 -59.5t31 -80.5q0 -61 -49 -95.5t-126 -34.5q-115 0 -155 40z" />
    <glyph glyph-name="t" unicode="t" horiz-adv-x="338" 
d="M123 22q-32 32 -32 98v310h-70v40h70v90l50 60h40v-150h120v-40h-120v-310q0 -90 70 -90q24 0 40.5 5t34.5 15l10 -20q-23 -17 -51 -28.5t-74 -11.5q-56 0 -88 32z" />
    <glyph glyph-name="u" unicode="u" horiz-adv-x="535" 
d="M120.5 30q-47.5 40 -47.5 140v180q0 51 -14 75.5t-56 24.5h-10v20h80q37 0 55.5 -9.5t26.5 -34.5t8 -76v-180q0 -70 31.5 -102.5t78.5 -32.5q53 0 100 53v382h90v-470h-50l-35 40h-5q-21 -21 -54.5 -35.5t-75.5 -14.5q-75 0 -122.5 40z" />
    <glyph glyph-name="v" unicode="v" horiz-adv-x="497" 
d="M99 355q-24 56 -46 78.5t-58 24.5v20q5 0 14.5 1t19.5 1q53 0 96 -26.5t74 -98.5l90 -215l140 330h50l-205 -480h-20z" />
    <glyph glyph-name="w" unicode="w" horiz-adv-x="749" 
d="M100 355q-23 56 -45.5 78.5t-59.5 24.5v20q5 0 15 1t20 1q54 0 95.5 -27.5t69.5 -97.5l85 -210l85 215q-24 53 -45.5 74.5t-54.5 23.5v20q5 0 15 1t20 1q54 0 95.5 -27.5t69.5 -97.5l85 -210l130 325h50l-195 -480h-20l-125 310l-125 -310h-20z" />
    <glyph glyph-name="x" unicode="x" horiz-adv-x="488" 
d="M198 225l-87 145q-42 73 -103 80v20h85q33 0 62 -21t51 -59l62 -105l130 185h50l-160 -225l87 -145q41 -72 108 -80v-20h-90q-33 0 -62 21t-51 59l-62 105l-130 -185h-50z" />
    <glyph glyph-name="y" unicode="y" horiz-adv-x="514" 
d="M105 -170q49 0 80.5 22.5t54.5 82.5l20 55l-160 390q-28 72 -110 80v20h85q87 0 120 -80l114 -277l126 347h50l-195 -535q-29 -79 -64 -107t-91 -28h-30v30z" />
    <glyph glyph-name="z" unicode="z" horiz-adv-x="466" 
d="M44 19l260 411h-115q-62 0 -93.5 -23.5t-31.5 -66.5h-20v50q0 80 85 80h305l-270 -430h270v-40h-390v19z" />
    <glyph glyph-name="braceleft" unicode="{" horiz-adv-x="304" 
d="M149.5 -144.5q-38.5 44.5 -38.5 114.5v140q0 46 -23.5 76.5t-76.5 38.5v30q53 8 76.5 38.5t23.5 76.5v140q0 69 38.5 113t126.5 67v-30q-50 -15 -67.5 -39t-17.5 -71v-170q0 -59 -25.5 -92t-79.5 -48q54 -15 79.5 -48t25.5 -92v-170q0 -47 17.5 -71.5t67.5 -38.5v-30
q-88 21 -126.5 65.5z" />
    <glyph glyph-name="bar" unicode="|" horiz-adv-x="240" 
d="M75 -190v870h90v-870h-90z" />
    <glyph glyph-name="braceright" unicode="}" horiz-adv-x="304" 
d="M28 -180q50 14 67.5 38.5t17.5 71.5v170q0 59 25.5 92t79.5 48q-54 15 -79.5 48t-25.5 92v170q0 47 -17.5 71t-67.5 39v30q88 -23 126.5 -67t38.5 -113v-140q0 -46 23.5 -76.5t76.5 -38.5v-30q-53 -8 -76.5 -38.5t-23.5 -76.5v-140q0 -70 -38.5 -114.5t-126.5 -65.5v30z
" />
    <glyph glyph-name="asciitilde" unicode="~" horiz-adv-x="629" 
d="M381 191q-34 11 -81 32q-41 19 -68 28t-52 9q-37 0 -58.5 -19.5t-21.5 -50.5h-40q0 70 35 105t85 35q35 0 69 -11t81 -32q41 -19 68 -28t52 -9q37 0 58.5 19.5t21.5 50.5h40q0 -70 -35 -105t-85 -35q-35 0 -69 11z" />
    <glyph glyph-name="uni00A0" unicode="&#xa0;" horiz-adv-x="250" 
 />
    <glyph glyph-name="exclamdown" unicode="&#xa1;" horiz-adv-x="220" 
d="M72 387.5q-16 15.5 -16 37.5q0 23 16 39t38 16t38 -16t16 -39q0 -22 -16 -37.5t-38 -15.5t-38 15.5zM63 -194l18 505h58l18 -505h-94z" />
    <glyph glyph-name="cent" unicode="&#xa2;" horiz-adv-x="483" 
d="M240 -10q-97 8 -148.5 75.5t-51.5 169.5t51.5 169.5t148.5 75.5v40h40v-40q43 0 75.5 -9t49.5 -26t21 -41.5t4 -88.5h-20q-4 62 -39 93.5t-91 31.5v-410q51 0 84 19.5t61 60.5l20 -15q-30 -51 -70.5 -76t-94.5 -29v-40h-40v40zM240 435q-51 -16 -78 -69.5t-27 -130.5
t27 -131.5t78 -68.5v400z" />
    <glyph glyph-name="sterling" unicode="&#xa3;" horiz-adv-x="528" 
d="M32 25q43 13 64 57t21 138v100h-70v40h70v100q0 123 47 166.5t128 43.5q49 0 90.5 -8.5t59.5 -26.5q17 -17 21 -36.5t4 -53.5h-45q-11 47 -38 66t-72 19q-51 0 -78 -36t-27 -134v-100h140v-40h-140v-100q0 -70 -14 -113t-41 -67h185q125 0 125 115h20v-75q0 -80 -85 -80
h-365v25z" />
    <glyph glyph-name="currency" unicode="&#xa4;" horiz-adv-x="576" 
d="M124 200h-60v40h60v50h-60v40h60v210q0 51 -14 75.5t-56 24.5h-20v20h260q109 0 179.5 -42.5t70.5 -137.5q0 -100 -70.5 -145t-179.5 -45h-80v-50h260v-40h-260v-200h-90v200zM294 330q67 2 108.5 39t41.5 111q0 71 -44 108t-111 37q-35 0 -75 -10v-285h80z" />
    <glyph glyph-name="yen" unicode="&#xa5;" horiz-adv-x="687" 
d="M339 145h-95v40h95v40h-95v40h95v8l-170 257q-26 37 -44 58t-42.5 35.5t-58.5 16.5v20h90q50 0 84 -29.5t66 -80.5l145 -225l209 335h45l-234 -380v-15h95v-40h-95v-40h95v-40h-95v-145h-90v145z" />
    <glyph glyph-name="brokenbar" unicode="&#xa6;" horiz-adv-x="246" 
d="M78 330v350h90v-350h-90zM78 -190v350h90v-350h-90z" />
    <glyph glyph-name="section" unicode="&#xa7;" horiz-adv-x="432" 
d="M134.5 -189.5q-34.5 10.5 -53.5 29.5q-17 17 -21 38t-4 67h20q8 -49 35.5 -77t69.5 -28q46 0 73 23t27 67q0 32 -15 56t-37 41.5t-59 41.5q-39 25 -62.5 44.5t-40 47t-16.5 64.5q0 105 105 145q-90 58 -90 150q0 75 43.5 112.5t111.5 37.5q42 0 76.5 -10.5t53.5 -29.5
q17 -17 21 -38t4 -67h-20q-8 49 -35.5 77t-69.5 28q-46 0 -73 -23t-27 -67q0 -32 15 -56t37 -41.5t59 -41.5q39 -25 62.5 -44.5t40 -47t16.5 -64.5q0 -56 -27 -90.5t-79 -54.5q43 -29 67 -65.5t24 -84.5q0 -75 -43.5 -112.5t-111.5 -37.5q-42 0 -76.5 10.5zM287.5 154.5
q18.5 21.5 18.5 60.5q0 40 -28 71t-83 61q-32 -10 -50.5 -31.5t-18.5 -60.5q0 -40 28 -71t83 -61q32 10 50.5 31.5z" />
    <glyph glyph-name="dieresis" unicode="&#xa8;" horiz-adv-x="310" 
d="M33.5 703.5q-13.5 13.5 -13.5 36.5t13.5 36.5t36.5 13.5t36.5 -13.5t13.5 -36.5t-13.5 -36.5t-36.5 -13.5t-36.5 13.5zM203.5 703.5q-13.5 13.5 -13.5 36.5t13.5 36.5t36.5 13.5t36.5 -13.5t13.5 -36.5t-13.5 -36.5t-36.5 -13.5t-36.5 13.5z" />
    <glyph glyph-name="copyright" unicode="&#xa9;" horiz-adv-x="790" 
d="M213 21q-81 46 -127 127t-46 182t46 182t127 127t182 46t182 -46t127 -127t46 -182t-46 -182t-127 -127t-182 -46t-182 46zM558 55q72 40 112 112t40 163t-40 163t-112 112t-163 40t-163 -40t-112 -112t-40 -163t40 -163t112 -112t163 -40t163 40zM289.5 134
q-45.5 29 -70 79.5t-24.5 113.5q0 64 27 118t73 85.5t100 31.5q51 0 91 -15t58 -37q11 -13 14 -36t3 -62h-13q-23 124 -133 124q-70 0 -113 -49.5t-43 -159.5q0 -81 39.5 -138t116.5 -57q48 0 83 22.5t63 68.5l13 -10q-31 -59 -74 -83.5t-105 -24.5q-60 0 -105.5 29z" />
    <glyph glyph-name="ordfeminine" unicode="&#xaa;" horiz-adv-x="321" 
d="M75 411q-24 15 -24 55q0 42 39 61.5t99 19.5h16q0 53 -14.5 72t-41.5 19q-25 0 -39 -10t-20 -35h-25q0 19 2 28.5t12 19.5q16 19 80 19q44 0 71 -23.5t27 -89.5v-146h-30l-19 25h-3q-9 -13 -28 -21.5t-47 -8.5q-31 0 -55 15zM205 453v72h-16q-40 0 -63 -16.5t-23 -42.5
q0 -48 46 -48q32 0 56 35z" />
    <glyph glyph-name="guillemotleft" unicode="&#xab;" horiz-adv-x="372" 
d="M190 30l-155 195l155 195h40l-95 -195l95 -195h-40zM275 80l-100 145l100 145h40l-60 -145l60 -145h-40z" />
    <glyph glyph-name="logicalnot" unicode="&#xac;" horiz-adv-x="654" 
d="M528 130v100h-460v60h520v-160h-60z" />
    <glyph glyph-name="uni00AD" unicode="&#xad;" horiz-adv-x="387" 
d="M66 230v70h255v-70h-255z" />
    <glyph glyph-name="registered" unicode="&#xae;" horiz-adv-x="790" 
d="M213 21q-81 46 -127 127t-46 182t46 182t127 127t182 46t182 -46t127 -127t46 -182t-46 -182t-127 -127t-182 -46t-182 46zM558 55q72 40 112 112t40 163t-40 163t-112 112t-163 40t-163 -40t-112 -112t-40 -163t40 -163t112 -112t163 -40t163 40zM498.5 138
q-23.5 20 -56.5 73l-67 112h-48v-198h-58v349q0 33 -9 49t-36 16h-13v13h168q61 0 111.5 -24.5t50.5 -93.5q0 -49 -30.5 -74.5t-72.5 -32.5l72 -116q25 -40 43 -55.5t42 -18.5v-12q-10 -7 -42 -7q-31 0 -54.5 20zM419.5 355q23.5 10 40 31t16.5 52t-16.5 52t-40 30.5
t-43.5 9.5q-19 0 -49 -7v-171q30 -7 49 -7q20 0 43.5 10z" />
    <glyph glyph-name="macron" unicode="&#xaf;" horiz-adv-x="455" 
d="M100 560v60h255v-60h-255z" />
    <glyph glyph-name="degree" unicode="&#xb0;" horiz-adv-x="412" 
d="M125 381q-37 21 -58 58t-21 81t21 81t58 58t81 21t81 -21t58 -58t21 -81t-21 -81t-58 -58t-81 -21t-81 21zM277 445q29 30 29 75t-29 75t-71 30t-71 -30t-29 -75t29 -75t71 -30t71 30z" />
    <glyph glyph-name="plusminus" unicode="&#xb1;" horiz-adv-x="574" 
d="M57 60v60h200v180h-200v60h200v200h60v-200h200v-60h-200v-180h200v-60h-460z" />
    <glyph glyph-name="uni00B2" unicode="&#xb2;" horiz-adv-x="321" 
d="M61 400l27 26q48 46 70 71t34.5 50t12.5 55q0 33 -15 49t-40 16q-29 0 -47.5 -18.5t-25.5 -55.5h-12q0 23 2 36.5t9 23.5q13 16 37 26t50 10q37 0 65.5 -18.5t28.5 -68.5q0 -41 -24 -73t-79 -81q-34 -30 -53 -49h91q29 0 43 10.5t14 33.5h12v-30q0 -36 -39 -36h-161v23z
" />
    <glyph glyph-name="uni00B3" unicode="&#xb3;" horiz-adv-x="311" 
d="M95.5 379q-22.5 12 -42.5 37l10 9q33 -36 84 -36q28 0 46 19t18 54q0 33 -17.5 50t-40.5 17q-30 0 -53 -6l-14 24l123 111h-84q-28 0 -42.5 -10.5t-14.5 -34.5h-9v30q0 37 39 37h151v-18l-128 -115q16 4 41 4q38 0 69.5 -21.5t31.5 -67.5q0 -53 -35.5 -74t-76.5 -21
q-33 0 -55.5 12z" />
    <glyph glyph-name="acute" unicode="&#xb4;" horiz-adv-x="175" 
d="M20 700l40 130h95l-95 -130h-40z" />
    <glyph glyph-name="uni00B5" unicode="&#xb5;" horiz-adv-x="529" 
d="M74 470h90v-235q0 -92 29 -148.5t86 -56.5q38 0 62.5 16.5t42.5 43.5v380h90v-470h-50l-35 45h-5q-24 -26 -48 -40.5t-67 -14.5q-60 0 -105 45v-225h-90v660z" />
    <glyph glyph-name="paragraph" unicode="&#xb6;" horiz-adv-x="601" 
d="M258 290q-66 0 -118 22.5t-82 64t-30 98.5t30 98.5t82 64t118 22.5h300v-40h-55v-810h-90v810h-65v-810h-90v480z" />
    <glyph glyph-name="periodcentered" unicode="&#xb7;" horiz-adv-x="230" 
d="M77 292q-16 16 -16 39q0 22 16 38t38 16q23 0 38.5 -16t15.5 -38q0 -23 -16 -39t-38 -16t-38 16z" />
    <glyph glyph-name="cedilla" unicode="&#xb8;" horiz-adv-x="180" 
d="M40 -155h50q40 0 40 32q0 33 -40 33h-45v90h45v-50h10q35 0 57.5 -19t22.5 -54q0 -34 -22.5 -53.5t-57.5 -19.5h-60v41z" />
    <glyph glyph-name="uni00B9" unicode="&#xb9;" horiz-adv-x="212" 
d="M90 377v247l-41 -24l-11 16l65 64h39v-303h-52z" />
    <glyph glyph-name="ordmasculine" unicode="&#xba;" horiz-adv-x="335" 
d="M80.5 410q-28.5 43 -28.5 118q0 76 28.5 118.5t86.5 42.5t87 -43t29 -118t-29 -118t-87 -43t-86.5 43zM215 422.5q16 33.5 16 105.5q0 139 -64 139q-63 0 -63 -139t63 -139q32 0 48 33.5z" />
    <glyph glyph-name="guillemotright" unicode="&#xbb;" horiz-adv-x="372" 
d="M142 30l95 195l-95 195h40l155 -195l-155 -195h-40zM57 80l60 145l-60 145h40l100 -145l-100 -145h-40z" />
    <glyph glyph-name="onequarter" unicode="&#xbc;" horiz-adv-x="596" 
d="M106 377v247l-41 -24l-11 16l65 64h39v-303h-52zM29 0l455 660h65l-455 -660h-65zM460 0v78h-152v19l157 207h47v-204h41v-22h-41v-78h-52zM342 100h118v155z" />
    <glyph glyph-name="onehalf" unicode="&#xbd;" horiz-adv-x="613" 
d="M106 377v247l-41 -24l-11 16l65 64h39v-303h-52zM29 0l455 660h65l-455 -660h-65zM363 23l27 26q48 46 70 71t34.5 50t12.5 55q0 33 -15 49t-40 16q-29 0 -47.5 -18.5t-25.5 -55.5h-12q0 23 2 36.5t9 23.5q13 16 37 26t50 10q37 0 65.5 -18.5t28.5 -68.5q0 -41 -24 -73
t-79 -81q-34 -30 -53 -49h91q29 0 43 10.5t14 33.5h12v-30q0 -36 -39 -36h-161v23z" />
    <glyph glyph-name="threequarters" unicode="&#xbe;" horiz-adv-x="614" 
d="M84.5 379q-22.5 12 -42.5 37l10 9q33 -36 84 -36q28 0 46 19t18 54q0 33 -17.5 50t-40.5 17q-30 0 -53 -6l-14 24l123 111h-84q-28 0 -42.5 -10.5t-14.5 -34.5h-9v30q0 37 39 37h151v-18l-128 -115q16 4 41 4q38 0 69.5 -21.5t31.5 -67.5q0 -53 -35.5 -74t-76.5 -21
q-33 0 -55.5 12zM58 0l455 660h65l-455 -660h-65zM478 0v78h-152v19l157 207h47v-204h41v-22h-41v-78h-52zM360 100h118v155z" />
    <glyph glyph-name="questiondown" unicode="&#xbf;" horiz-adv-x="473" 
d="M220 388q-16 16 -16 39q0 22 16.5 38t38.5 16q23 0 38.5 -16t15.5 -38q0 -23 -15.5 -39t-38.5 -16t-39 16zM89.5 -170.5q-60.5 41.5 -60.5 148.5q0 42 16 75t38 57t60 58q48 42 71.5 72.5t24.5 71.5h40q-1 -55 -20.5 -92t-57.5 -83q-36 -41 -54 -75.5t-18 -83.5
q0 -72 37.5 -111t92.5 -39q62 0 106.5 44.5t59.5 125.5h20q0 -50 -4 -79.5t-21 -50.5q-28 -34 -80.5 -57t-110.5 -23q-79 0 -139.5 41.5z" />
    <glyph glyph-name="Agrave" unicode="&#xc0;" horiz-adv-x="635" 
d="M527 21.5q-47 26.5 -75 103.5l-25 65h-280l-80 -190h-45l280 660h30l220 -535q25 -58 47 -79.5t63 -25.5v-20q-18 -5 -40 -5q-48 0 -95 26.5zM162 230h245l-120 290zM308 705l-95 130h95l40 -130h-40z" />
    <glyph glyph-name="Aacute" unicode="&#xc1;" horiz-adv-x="635" 
d="M527 21.5q-47 26.5 -75 103.5l-25 65h-280l-80 -190h-45l280 660h30l220 -535q25 -58 47 -79.5t63 -25.5v-20q-18 -5 -40 -5q-48 0 -95 26.5zM162 230h245l-120 290zM302 700l40 130h95l-95 -130h-40z" />
    <glyph glyph-name="Acircumflex" unicode="&#xc2;" horiz-adv-x="635" 
d="M527 21.5q-47 26.5 -75 103.5l-25 65h-280l-80 -190h-45l280 660h30l220 -535q25 -58 47 -79.5t63 -25.5v-20q-18 -5 -40 -5q-48 0 -95 26.5zM162 230h245l-120 290zM182 685l80 115h110l80 -115h-50l-85 80l-85 -80h-50z" />
    <glyph glyph-name="Atilde" unicode="&#xc3;" horiz-adv-x="635" 
d="M527 21.5q-47 26.5 -75 103.5l-25 65h-280l-80 -190h-45l280 660h30l220 -535q25 -58 47 -79.5t63 -25.5v-20q-18 -5 -40 -5q-48 0 -95 26.5zM162 230h245l-120 290zM223.5 773.5q14.5 21.5 45.5 21.5q15 0 27.5 -5.5t27.5 -15.5q3 -2 13 -7.5t19 -8.5t18 -3
q11 0 20.5 14t9.5 26h30q0 -52 -14.5 -73.5t-45.5 -21.5q-14 0 -26.5 5t-27.5 15q-17 10 -27.5 15t-23.5 5q-11 0 -20.5 -14t-9.5 -26h-30q0 52 14.5 73.5z" />
    <glyph glyph-name="Adieresis" unicode="&#xc4;" horiz-adv-x="635" 
d="M527 21.5q-47 26.5 -75 103.5l-25 65h-280l-80 -190h-45l280 660h30l220 -535q25 -58 47 -79.5t63 -25.5v-20q-18 -5 -40 -5q-48 0 -95 26.5zM162 230h245l-120 290zM195.5 703.5q-13.5 13.5 -13.5 36.5t13.5 36.5t36.5 13.5t36.5 -13.5t13.5 -36.5t-13.5 -36.5
t-36.5 -13.5t-36.5 13.5zM365.5 703.5q-13.5 13.5 -13.5 36.5t13.5 36.5t36.5 13.5t36.5 -13.5t13.5 -36.5t-13.5 -36.5t-36.5 -13.5t-36.5 13.5z" />
    <glyph glyph-name="Aring" unicode="&#xc5;" horiz-adv-x="636" 
d="M527 21.5q-47 26.5 -75 103.5l-25 65h-280l-80 -190h-45l265 625q-23 10 -39 29.5t-16 50.5q0 34 25.5 59.5t59.5 25.5t59.5 -25.5t25.5 -59.5q0 -31 -16 -50.5t-39 -29.5l205 -500q25 -58 47 -79.5t63 -25.5v-20q-18 -5 -40 -5q-48 0 -95 26.5zM337 660q25 18 25 45
q0 23 -13 36.5t-32 13.5t-32 -13.5t-13 -36.5q0 -27 25 -45h40zM162 230h245l-120 290z" />
    <glyph glyph-name="AE" unicode="&#xc6;" horiz-adv-x="865" 
d="M356 660h361q85 0 85 -80v-75h-20q0 115 -125 115h-186v-260h270v-40h-270v-280h175q69 0 108 25t62 85l20 -5l-35 -95q-18 -50 -75 -50h-345v190h-240l-105 -190h-50zM166 230h215v385z" />
    <glyph glyph-name="Ccedilla" unicode="&#xc7;" horiz-adv-x="665" 
d="M324 -155h50q40 0 40 32q0 33 -40 33h-45v70q-86 5 -150.5 51t-99.5 121.5t-35 167.5q0 98 41.5 181t113 131t155.5 48q80 0 140.5 -22.5t89.5 -57.5q17 -21 21 -55.5t4 -94.5h-20q-19 97 -70 143.5t-135 46.5q-108 0 -174 -76t-66 -244q0 -79 25.5 -147t79.5 -110.5
t135 -42.5q73 0 127.5 35t97.5 105l20 -15q-44 -85 -106.5 -123t-148.5 -42v-30h10q35 0 57.5 -19t22.5 -54q0 -34 -22.5 -53.5t-57.5 -19.5h-60v41z" />
    <glyph glyph-name="Egrave" unicode="&#xc8;" horiz-adv-x="590" 
d="M106 540q0 51 -14 75.5t-56 24.5h-20v20h426q85 0 85 -80v-75h-20q0 115 -125 115h-186v-260h270v-40h-270v-280h175q69 0 108 25t62 85l20 -5l-35 -95q-18 -50 -75 -50h-345v540zM285 705l-95 130h95l40 -130h-40z" />
    <glyph glyph-name="Eacute" unicode="&#xc9;" horiz-adv-x="590" 
d="M106 540q0 51 -14 75.5t-56 24.5h-20v20h426q85 0 85 -80v-75h-20q0 115 -125 115h-186v-260h270v-40h-270v-280h175q69 0 108 25t62 85l20 -5l-35 -95q-18 -50 -75 -50h-345v540zM276 700l40 130h95l-95 -130h-40z" />
    <glyph glyph-name="Ecircumflex" unicode="&#xca;" horiz-adv-x="590" 
d="M106 540q0 51 -14 75.5t-56 24.5h-20v20h426q85 0 85 -80v-75h-20q0 115 -125 115h-186v-260h270v-40h-270v-280h175q69 0 108 25t62 85l20 -5l-35 -95q-18 -50 -75 -50h-345v540zM166 721l80 115h110l80 -115h-50l-85 80l-85 -80h-50z" />
    <glyph glyph-name="Edieresis" unicode="&#xcb;" horiz-adv-x="590" 
d="M106 540q0 51 -14 75.5t-56 24.5h-20v20h426q85 0 85 -80v-75h-20q0 115 -125 115h-186v-260h270v-40h-270v-280h175q69 0 108 25t62 85l20 -5l-35 -95q-18 -50 -75 -50h-345v540zM169.5 743.5q-13.5 13.5 -13.5 36.5t13.5 36.5t36.5 13.5t36.5 -13.5t13.5 -36.5
t-13.5 -36.5t-36.5 -13.5t-36.5 13.5zM339.5 743.5q-13.5 13.5 -13.5 36.5t13.5 36.5t36.5 13.5t36.5 -13.5t13.5 -36.5t-13.5 -36.5t-36.5 -13.5t-36.5 13.5z" />
    <glyph glyph-name="Igrave" unicode="&#xcc;" horiz-adv-x="285" 
d="M123.5 9.5q-18.5 9.5 -26.5 34.5t-8 76v540h90v-540q0 -51 14 -75.5t56 -24.5h20v-20h-90q-37 0 -55.5 9.5zM133 705l-95 130h95l40 -130h-40z" />
    <glyph glyph-name="Iacute" unicode="&#xcd;" horiz-adv-x="285" 
d="M123.5 9.5q-18.5 9.5 -26.5 34.5t-8 76v540h90v-540q0 -51 14 -75.5t56 -24.5h20v-20h-90q-37 0 -55.5 9.5zM109 700l40 130h95l-95 -130h-40z" />
    <glyph glyph-name="Icircumflex" unicode="&#xce;" horiz-adv-x="285" 
d="M123.5 9.5q-18.5 9.5 -26.5 34.5t-8 76v540h90v-540q0 -51 14 -75.5t56 -24.5h20v-20h-90q-37 0 -55.5 9.5zM0 695l80 115h110l80 -115h-50l-85 80l-85 -80h-50z" />
    <glyph glyph-name="Idieresis" unicode="&#xcf;" horiz-adv-x="285" 
d="M20.5 728.5q-13.5 13.5 -13.5 36.5t13.5 36.5t36.5 13.5t36.5 -13.5t13.5 -36.5t-13.5 -36.5t-36.5 -13.5t-36.5 13.5zM174.5 728.5q-13.5 13.5 -13.5 36.5t13.5 36.5t36.5 13.5t36.5 -13.5t13.5 -36.5t-13.5 -36.5t-36.5 -13.5t-36.5 13.5zM123.5 9.5
q-18.5 9.5 -26.5 34.5t-8 76v540h90v-540q0 -51 14 -75.5t56 -24.5h20v-20h-90q-37 0 -55.5 9.5z" />
    <glyph glyph-name="Eth" unicode="&#xd0;" horiz-adv-x="715" 
d="M106 310h-75v40h75v190q0 51 -14 75.5t-56 24.5h-20v20h262q194 0 293.5 -86t99.5 -240q0 -99 -42 -174.5t-124.5 -117.5t-200.5 -42h-198v310zM434.5 71.5q59.5 36.5 93.5 103t34 155.5q0 87 -33.5 154t-93.5 104t-136 37q-48 0 -100 -16v-259h87v-40h-87v-262
q56 -13 102 -13q74 0 133.5 36.5z" />
    <glyph glyph-name="Ntilde" unicode="&#xd1;" horiz-adv-x="685" 
d="M150 525v-525h-40v540q0 48 -20.5 74t-69.5 26h-10v20h65q46 0 78 -15t57 -45l350 -435v495h40v-670h-20zM251.5 767.5q14.5 21.5 45.5 21.5q15 0 27.5 -5.5t27.5 -15.5q3 -2 13 -7.5t19 -8.5t18 -3q11 0 20.5 14t9.5 26h30q0 -52 -14.5 -73.5t-45.5 -21.5q-14 0 -26.5 5
t-27.5 15q-17 10 -27.5 15t-23.5 5q-11 0 -20.5 -14t-9.5 -26h-30q0 52 14.5 73.5z" />
    <glyph glyph-name="Ograve" unicode="&#xd2;" horiz-adv-x="712" 
d="M192.5 26q-70.5 46 -108.5 126t-38 178t38 178t108.5 126t163.5 46t163.5 -46t108.5 -126t38 -178t-38 -178t-108.5 -126t-163.5 -46t-163.5 46zM468.5 58q47.5 38 72.5 107.5t25 164.5t-25 164.5t-72.5 107.5t-112.5 38t-112.5 -38t-72.5 -107.5t-25 -164.5t25 -164.5
t72.5 -107.5t112.5 -38t112.5 38zM346 705l-95 130h95l40 -130h-40z" />
    <glyph glyph-name="Oacute" unicode="&#xd3;" horiz-adv-x="712" 
d="M192.5 26q-70.5 46 -108.5 126t-38 178t38 178t108.5 126t163.5 46t163.5 -46t108.5 -126t38 -178t-38 -178t-108.5 -126t-163.5 -46t-163.5 46zM468.5 58q47.5 38 72.5 107.5t25 164.5t-25 164.5t-72.5 107.5t-112.5 38t-112.5 -38t-72.5 -107.5t-25 -164.5t25 -164.5
t72.5 -107.5t112.5 -38t112.5 38zM335 720l40 130h95l-95 -130h-40z" />
    <glyph glyph-name="Ocircumflex" unicode="&#xd4;" horiz-adv-x="712" 
d="M192.5 26q-70.5 46 -108.5 126t-38 178t38 178t108.5 126t163.5 46t163.5 -46t108.5 -126t38 -178t-38 -178t-108.5 -126t-163.5 -46t-163.5 46zM468.5 58q47.5 38 72.5 107.5t25 164.5t-25 164.5t-72.5 107.5t-112.5 38t-112.5 -38t-72.5 -107.5t-25 -164.5t25 -164.5
t72.5 -107.5t112.5 -38t112.5 38zM216 720l80 115h110l80 -115h-50l-85 80l-85 -80h-50z" />
    <glyph glyph-name="Otilde" unicode="&#xd5;" horiz-adv-x="712" 
d="M192.5 26q-70.5 46 -108.5 126t-38 178t38 178t108.5 126t163.5 46t163.5 -46t108.5 -126t38 -178t-38 -178t-108.5 -126t-163.5 -46t-163.5 46zM468.5 58q47.5 38 72.5 107.5t25 164.5t-25 164.5t-72.5 107.5t-112.5 38t-112.5 -38t-72.5 -107.5t-25 -164.5t25 -164.5
t72.5 -107.5t112.5 -38t112.5 38zM256.5 811.5q14.5 21.5 45.5 21.5q15 0 27.5 -5.5t27.5 -15.5q3 -2 13 -7.5t19 -8.5t18 -3q11 0 20.5 14t9.5 26h30q0 -52 -14.5 -73.5t-45.5 -21.5q-14 0 -26.5 5t-27.5 15q-17 10 -27.5 15t-23.5 5q-11 0 -20.5 -14t-9.5 -26h-30
q0 52 14.5 73.5z" />
    <glyph glyph-name="Odieresis" unicode="&#xd6;" horiz-adv-x="712" 
d="M192.5 26q-70.5 46 -108.5 126t-38 178t38 178t108.5 126t163.5 46t163.5 -46t108.5 -126t38 -178t-38 -178t-108.5 -126t-163.5 -46t-163.5 46zM468.5 58q47.5 38 72.5 107.5t25 164.5t-25 164.5t-72.5 107.5t-112.5 38t-112.5 -38t-72.5 -107.5t-25 -164.5t25 -164.5
t72.5 -107.5t112.5 -38t112.5 38zM234.5 748.5q-13.5 13.5 -13.5 36.5t13.5 36.5t36.5 13.5t36.5 -13.5t13.5 -36.5t-13.5 -36.5t-36.5 -13.5t-36.5 13.5zM404.5 748.5q-13.5 13.5 -13.5 36.5t13.5 36.5t36.5 13.5t36.5 -13.5t13.5 -36.5t-13.5 -36.5t-36.5 -13.5
t-36.5 13.5z" />
    <glyph glyph-name="multiply" unicode="&#xd7;" horiz-adv-x="469" 
d="M93 149l-42 43l141 141l-141 142l42 42l142 -142l141 142l42 -43l-141 -141l141 -142l-42 -42l-142 142z" />
    <glyph glyph-name="Oslash" unicode="&#xd8;" horiz-adv-x="712" 
d="M163 48q-56 48 -86.5 121t-30.5 161q0 98 38 178t108.5 126t163.5 46q72 0 134 -30l17 30h73l-36 -65q58 -48 90 -122t32 -163q0 -98 -38 -178t-108.5 -126t-163.5 -46q-78 0 -140 32l-17 -32h-73zM465 604q-46 36 -109 36q-65 0 -112.5 -38t-72.5 -107.5t-25 -164.5
q0 -137 51 -219zM468.5 58q47.5 38 72.5 107.5t25 164.5q0 138 -55 224l-269 -495q50 -39 114 -39q65 0 112.5 38z" />
    <glyph glyph-name="Ugrave" unicode="&#xd9;" horiz-adv-x="687" 
d="M202 22.5q-56 32.5 -79.5 96.5t-23.5 166v255q0 51 -14 75.5t-56 24.5h-20v20h90q37 0 55.5 -9.5t26.5 -34.5t8 -76v-285q0 -111 41 -168t136 -57q76 0 120.5 27t63.5 82t19 146v375h40v-375q0 -104 -22 -167.5t-77.5 -95.5t-155.5 -32q-96 0 -152 32.5zM334 705l-95 130
h95l40 -130h-40z" />
    <glyph glyph-name="Uacute" unicode="&#xda;" horiz-adv-x="687" 
d="M202 22.5q-56 32.5 -79.5 96.5t-23.5 166v255q0 51 -14 75.5t-56 24.5h-20v20h90q37 0 55.5 -9.5t26.5 -34.5t8 -76v-285q0 -111 41 -168t136 -57q76 0 120.5 27t63.5 82t19 146v375h40v-375q0 -104 -22 -167.5t-77.5 -95.5t-155.5 -32q-96 0 -152 32.5zM329 681l40 130
h95l-95 -130h-40z" />
    <glyph glyph-name="Ucircumflex" unicode="&#xdb;" horiz-adv-x="687" 
d="M202 22.5q-56 32.5 -79.5 96.5t-23.5 166v255q0 51 -14 75.5t-56 24.5h-20v20h90q37 0 55.5 -9.5t26.5 -34.5t8 -76v-285q0 -111 41 -168t136 -57q76 0 120.5 27t63.5 82t19 146v375h40v-375q0 -104 -22 -167.5t-77.5 -95.5t-155.5 -32q-96 0 -152 32.5zM239 671l80 115
h110l80 -115h-50l-85 80l-85 -80h-50z" />
    <glyph glyph-name="Udieresis" unicode="&#xdc;" horiz-adv-x="687" 
d="M202 22.5q-56 32.5 -79.5 96.5t-23.5 166v255q0 51 -14 75.5t-56 24.5h-20v20h90q37 0 55.5 -9.5t26.5 -34.5t8 -76v-285q0 -111 41 -168t136 -57q76 0 120.5 27t63.5 82t19 146v375h40v-375q0 -104 -22 -167.5t-77.5 -95.5t-155.5 -32q-96 0 -152 32.5zM247.5 694.5
q-13.5 13.5 -13.5 36.5t13.5 36.5t36.5 13.5t36.5 -13.5t13.5 -36.5t-13.5 -36.5t-36.5 -13.5t-36.5 13.5zM417.5 694.5q-13.5 13.5 -13.5 36.5t13.5 36.5t36.5 13.5t36.5 -13.5t13.5 -36.5t-13.5 -36.5t-36.5 -13.5t-36.5 13.5z" />
    <glyph glyph-name="Yacute" unicode="&#xdd;" horiz-adv-x="628" 
d="M290 273l-170 257q-26 37 -44 58t-42.5 35.5t-58.5 16.5v20h90q50 0 84 -29.5t66 -80.5l145 -225l209 335h45l-234 -380v-280h-90v273zM315 671l40 130h95l-95 -130h-40z" />
    <glyph glyph-name="Thorn" unicode="&#xde;" horiz-adv-x="535" 
d="M109 600q0 38 -16 54t-54 16h-20v20h90q52 0 71 -19t19 -71v-50q152 0 231 -59.5t79 -175.5t-79 -175.5t-231 -59.5v-110h-90v630zM358 172q51 52 51 143t-51 143t-159 52v-390q108 0 159 52z" />
    <glyph glyph-name="germandbls" unicode="&#xdf;" horiz-adv-x="554" 
d="M309.5 0.5q-33.5 10.5 -52.5 29.5q-17 17 -21 35.5t-4 44.5h20q4 -31 35.5 -55.5t74.5 -24.5q37 0 58.5 19.5t21.5 50.5q0 35 -23.5 58.5t-71.5 52.5q-36 22 -57.5 39t-37 42t-15.5 58q0 39 15.5 61.5t46.5 49.5q26 22 39.5 41t13.5 48q0 39 -22.5 59.5t-67.5 20.5
q-51 0 -75.5 -29t-24.5 -101v-500h-90v500q0 97 52 133.5t143 36.5q82 0 126 -27t44 -73q0 -39 -15.5 -61.5t-46.5 -49.5q-26 -22 -39.5 -41t-13.5 -48q0 -35 23.5 -58.5t71.5 -52.5q36 -22 57.5 -39t37 -42t15.5 -58q0 -66 -39 -98t-106 -32q-39 0 -72.5 10.5z" />
    <glyph glyph-name="agrave" unicode="&#xe0;" horiz-adv-x="481" 
d="M119 3.5q-33 13.5 -56.5 44.5t-23.5 82q0 76 70.5 108t184.5 32h30q0 98 -27 134t-78 36q-45 0 -72 -19t-38 -66h-45q0 34 4 53.5t21 36.5q18 18 59.5 26.5t90.5 8.5q81 0 128 -43.5t47 -166.5v-270h-50l-35 45h-5q-18 -23 -53 -39t-87 -16q-32 0 -65 13.5zM284 51
q22 16 40 44v135h-30q-74 0 -117 -27.5t-43 -72.5q0 -46 27.5 -70.5t67.5 -24.5q33 0 55 16zM231 515l-95 130h95l40 -130h-40z" />
    <glyph glyph-name="aacute" unicode="&#xe1;" horiz-adv-x="481" 
d="M119 3.5q-33 13.5 -56.5 44.5t-23.5 82q0 76 70.5 108t184.5 32h30q0 98 -27 134t-78 36q-45 0 -72 -19t-38 -66h-45q0 34 4 53.5t21 36.5q18 18 59.5 26.5t90.5 8.5q81 0 128 -43.5t47 -166.5v-270h-50l-35 45h-5q-18 -23 -53 -39t-87 -16q-32 0 -65 13.5zM284 51
q22 16 40 44v135h-30q-74 0 -117 -27.5t-43 -72.5q0 -46 27.5 -70.5t67.5 -24.5q33 0 55 16zM213 515l40 130h95l-95 -130h-40z" />
    <glyph glyph-name="acircumflex" unicode="&#xe2;" horiz-adv-x="481" 
d="M119 3.5q-33 13.5 -56.5 44.5t-23.5 82q0 76 70.5 108t184.5 32h30q0 98 -27 134t-78 36q-45 0 -72 -19t-38 -66h-45q0 34 4 53.5t21 36.5q18 18 59.5 26.5t90.5 8.5q81 0 128 -43.5t47 -166.5v-270h-50l-35 45h-5q-18 -23 -53 -39t-87 -16q-32 0 -65 13.5zM284 51
q22 16 40 44v135h-30q-74 0 -117 -27.5t-43 -72.5q0 -46 27.5 -70.5t67.5 -24.5q33 0 55 16zM106 520l80 115h110l80 -115h-50l-85 80l-85 -80h-50z" />
    <glyph glyph-name="atilde" unicode="&#xe3;" horiz-adv-x="481" 
d="M119 3.5q-33 13.5 -56.5 44.5t-23.5 82q0 76 70.5 108t184.5 32h30q0 98 -27 134t-78 36q-45 0 -72 -19t-38 -66h-45q0 34 4 53.5t21 36.5q18 18 59.5 26.5t90.5 8.5q81 0 128 -43.5t47 -166.5v-270h-50l-35 45h-5q-18 -23 -53 -39t-87 -16q-32 0 -65 13.5zM284 51
q22 16 40 44v135h-30q-74 0 -117 -27.5t-43 -72.5q0 -46 27.5 -70.5t67.5 -24.5q33 0 55 16zM137.5 609.5q14.5 21.5 45.5 21.5q15 0 27.5 -5.5t27.5 -15.5q3 -2 13 -7.5t19 -8.5t18 -3q11 0 20.5 14t9.5 26h30q0 -52 -14.5 -73.5t-45.5 -21.5q-14 0 -26.5 5t-27.5 15
q-17 10 -27.5 15t-23.5 5q-11 0 -20.5 -14t-9.5 -26h-30q0 52 14.5 73.5z" />
    <glyph glyph-name="adieresis" unicode="&#xe4;" horiz-adv-x="481" 
d="M119 3.5q-33 13.5 -56.5 44.5t-23.5 82q0 76 70.5 108t184.5 32h30q0 98 -27 134t-78 36q-45 0 -72 -19t-38 -66h-45q0 34 4 53.5t21 36.5q18 18 59.5 26.5t90.5 8.5q81 0 128 -43.5t47 -166.5v-270h-50l-35 45h-5q-18 -23 -53 -39t-87 -16q-32 0 -65 13.5zM284 51
q22 16 40 44v135h-30q-74 0 -117 -27.5t-43 -72.5q0 -46 27.5 -70.5t67.5 -24.5q33 0 55 16zM222 548q-13 13 -13 32t13 32t32 13t32 -13t13 -32t-13 -32t-32 -13t-32 13zM392 548q-13 13 -13 32t13 32t32 13t32 -13t13 -32t-13 -32t-32 -13t-32 13z" />
    <glyph glyph-name="aring" unicode="&#xe5;" horiz-adv-x="481" 
d="M119 3.5q-33 13.5 -56.5 44.5t-23.5 82q0 76 70.5 108t184.5 32h30q0 98 -27 134t-78 36q-45 0 -72 -19t-38 -66h-45q0 34 4 53.5t21 36.5q18 18 59.5 26.5t90.5 8.5q81 0 128 -43.5t47 -166.5v-270h-50l-35 45h-5q-18 -23 -53 -39t-87 -16q-32 0 -65 13.5zM284 51
q22 16 40 44v135h-30q-74 0 -117 -27.5t-43 -72.5q0 -46 27.5 -70.5t67.5 -24.5q33 0 55 16zM174.5 555.5q-25.5 25.5 -25.5 59.5t25.5 59.5t59.5 25.5t59.5 -25.5t25.5 -59.5t-25.5 -59.5t-59.5 -25.5t-59.5 25.5zM266 578.5q13 13.5 13 36.5t-13 36.5t-32 13.5t-32 -13.5
t-13 -36.5t13 -36.5t32 -13.5t32 13.5z" />
    <glyph glyph-name="ae" unicode="&#xe6;" horiz-adv-x="759" 
d="M87.5 22q-48.5 32 -48.5 103q0 72 70.5 103.5t184.5 31.5h30q0 104 -27 142t-78 38q-45 0 -72 -19t-38 -66h-45q0 34 4 53.5t21 36.5q18 18 59.5 26.5t90.5 8.5q51 0 87.5 -25t52.5 -65q16 40 52 65t83 25q101 0 150.5 -56.5t49.5 -163.5l-2 -40h-298q0 -84 36 -137
t99 -53q47 0 79.5 20t60.5 60l20 -15q-33 -55 -77 -80t-103 -25q-117 0 -170 85q-23 -43 -60.5 -64t-99.5 -21q-63 0 -111.5 32zM624 260q0 85 -26.5 130t-78.5 45q-30 0 -54 -23t-37.5 -63t-13.5 -89h210zM284 51q22 16 40 44v125h-30q-74 0 -117 -26t-43 -69t27 -66.5
t68 -23.5q33 0 55 16z" />
    <glyph glyph-name="ccedilla" unicode="&#xe7;" horiz-adv-x="483" 
d="M231 -155h50q40 0 40 32q0 33 -40 33h-45v80q-94 12 -142.5 79t-48.5 166q0 69 24.5 124.5t74 88t121.5 32.5q110 0 145 -35q17 -17 21 -41.5t4 -88.5h-20q-4 62 -39 93.5t-91 31.5q-72 0 -108.5 -57t-36.5 -148t36.5 -148t108.5 -57q51 0 84 19.5t61 60.5l20 -15
q-32 -54 -75 -78q-38 -21 -94 -26v-41h10q35 0 57.5 -19t22.5 -54q0 -34 -22.5 -53.5t-57.5 -19.5h-60v41z" />
    <glyph glyph-name="egrave" unicode="&#xe8;" horiz-adv-x="488" 
d="M140 22.5q-47 32.5 -71 88t-24 124.5q0 68 24 124t69.5 88.5t106.5 32.5q101 0 150.5 -56.5t49.5 -163.5l-2 -40h-303q0 -84 36 -137t99 -53q47 0 79.5 20t60.5 60l20 -15q-33 -55 -77 -80t-103 -25q-68 0 -115 32.5zM350 260q0 88 -26 134t-79 46q-30 0 -54 -23.5
t-37.5 -64.5t-13.5 -92h210zM234 515l-95 130h95l40 -130h-40z" />
    <glyph glyph-name="eacute" unicode="&#xe9;" horiz-adv-x="488" 
d="M140 22.5q-47 32.5 -71 88t-24 124.5q0 68 24 124t69.5 88.5t106.5 32.5q101 0 150.5 -56.5t49.5 -163.5l-2 -40h-303q0 -84 36 -137t99 -53q47 0 79.5 20t60.5 60l20 -15q-33 -55 -77 -80t-103 -25q-68 0 -115 32.5zM350 260q0 88 -26 134t-79 46q-30 0 -54 -23.5
t-37.5 -64.5t-13.5 -92h210zM216 515l40 130h95l-95 -130h-40z" />
    <glyph glyph-name="ecircumflex" unicode="&#xea;" horiz-adv-x="488" 
d="M140 22.5q-47 32.5 -71 88t-24 124.5q0 68 24 124t69.5 88.5t106.5 32.5q101 0 150.5 -56.5t49.5 -163.5l-2 -40h-303q0 -84 36 -137t99 -53q47 0 79.5 20t60.5 60l20 -15q-33 -55 -77 -80t-103 -25q-68 0 -115 32.5zM350 260q0 88 -26 134t-79 46q-30 0 -54 -23.5
t-37.5 -64.5t-13.5 -92h210zM109 520l80 115h110l80 -115h-50l-85 80l-85 -80h-50z" />
    <glyph glyph-name="edieresis" unicode="&#xeb;" horiz-adv-x="488" 
d="M140 22.5q-47 32.5 -71 88t-24 124.5q0 68 24 124t69.5 88.5t106.5 32.5q101 0 150.5 -56.5t49.5 -163.5l-2 -40h-303q0 -84 36 -137t99 -53q47 0 79.5 20t60.5 60l20 -15q-33 -55 -77 -80t-103 -25q-68 0 -115 32.5zM350 260q0 88 -26 134t-79 46q-30 0 -54 -23.5
t-37.5 -64.5t-13.5 -92h210zM223 558q-13 13 -13 32t13 32t32 13t32 -13t13 -32t-13 -32t-32 -13t-32 13zM393 558q-13 13 -13 32t13 32t32 13t32 -13t13 -32t-13 -32t-32 -13t-32 13z" />
    <glyph glyph-name="igrave" unicode="&#xec;" horiz-adv-x="246" 
d="M87 350q0 51 -14 75.5t-56 24.5h-20v20h90q37 0 55.5 -9.5t26.5 -34.5t8 -76v-350h-90v350zM113 515l-95 130h95l40 -130h-40z" />
    <glyph glyph-name="iacute" unicode="&#xed;" horiz-adv-x="246" 
d="M87 350q0 51 -14 75.5t-56 24.5h-20v20h90q37 0 55.5 -9.5t26.5 -34.5t8 -76v-350h-90v350zM95 515l40 130h95l-95 -130h-40z" />
    <glyph glyph-name="icircumflex" unicode="&#xee;" horiz-adv-x="246" 
d="M87 350q0 51 -14 75.5t-56 24.5h-20v20h90q37 0 55.5 -9.5t26.5 -34.5t8 -76v-350h-90v350zM97 530l80 115h110l80 -115h-50l-85 80l-85 -80h-50z" />
    <glyph glyph-name="idieresis" unicode="&#xef;" horiz-adv-x="246" 
d="M12.5 559q-16.5 19 -16.5 45q0 21 12.5 33t33.5 12q23 0 39.5 -19t16.5 -45q0 -21 -12.5 -33t-33.5 -12q-23 0 -39.5 19zM166.5 559q-16.5 19 -16.5 45q0 21 12.5 33t33.5 12q23 0 39.5 -19t16.5 -45q0 -21 -12.5 -33t-33.5 -12q-23 0 -39.5 19zM87 350q0 51 -14 75.5
t-56 24.5h-20v20h90q37 0 55.5 -9.5t26.5 -34.5t8 -76v-350h-90v350z" />
    <glyph glyph-name="eth" unicode="&#xf0;" horiz-adv-x="537" 
d="M146 22.5q-50 32.5 -76 88.5t-26 124t26 124t76 88.5t118 32.5q42 0 76.5 -21t53.5 -59q-12 55 -28 93t-42 67l-40 -40l-30 30l40 40q-24 24 -48.5 34.5t-61.5 10.5q-13 0 -25.5 -2t-18.5 -4l-8 19q19 13 40.5 17.5t51.5 4.5q59 0 115 -40l35 40l30 -30l-35 -35
q55 -55 85 -139.5t30 -195.5q0 -129 -58 -204.5t-162 -75.5q-68 0 -118 32.5zM329.5 57q28.5 27 44 74t15.5 104t-15.5 104t-44 74t-65.5 27t-65.5 -27t-44 -74t-15.5 -104t15.5 -104t44 -74t65.5 -27t65.5 27z" />
    <glyph glyph-name="ntilde" unicode="&#xf1;" horiz-adv-x="544" 
d="M87 350q0 51 -14 75.5t-56 24.5h-20v20h90q37 0 56.5 -10t28.5 -30h5q21 21 54.5 35.5t75.5 14.5q75 0 122.5 -40t47.5 -140v-300h-90v300q0 70 -31.5 102.5t-78.5 32.5q-53 0 -100 -53v-382h-90v350zM183.5 618.5q14.5 21.5 45.5 21.5q15 0 27.5 -5.5t27.5 -15.5
q3 -2 13 -7.5t19 -8.5t18 -3q11 0 20.5 14t9.5 26h30q0 -52 -14.5 -73.5t-45.5 -21.5q-14 0 -26.5 5t-27.5 15q-17 10 -27.5 15t-23.5 5q-11 0 -20.5 -14t-9.5 -26h-30q0 52 14.5 73.5z" />
    <glyph glyph-name="ograve" unicode="&#xf2;" 
d="M147 22.5q-50 32.5 -76 88.5t-26 124t26 124t76 88.5t118 32.5t118 -32.5t76 -88.5t26 -124t-26 -124t-76 -88.5t-118 -32.5t-118 32.5zM330.5 57q28.5 27 44 74t15.5 104t-15.5 104t-44 74t-65.5 27t-65.5 -27t-44 -74t-15.5 -104t15.5 -104t44 -74t65.5 -27t65.5 27z
M255 515l-95 130h95l40 -130h-40z" />
    <glyph glyph-name="oacute" unicode="&#xf3;" 
d="M147 22.5q-50 32.5 -76 88.5t-26 124t26 124t76 88.5t118 32.5t118 -32.5t76 -88.5t26 -124t-26 -124t-76 -88.5t-118 -32.5t-118 32.5zM330.5 57q28.5 27 44 74t15.5 104t-15.5 104t-44 74t-65.5 27t-65.5 -27t-44 -74t-15.5 -104t15.5 -104t44 -74t65.5 -27t65.5 27z
M237 515l40 130h95l-95 -130h-40z" />
    <glyph glyph-name="ocircumflex" unicode="&#xf4;" 
d="M147 22.5q-50 32.5 -76 88.5t-26 124t26 124t76 88.5t118 32.5t118 -32.5t76 -88.5t26 -124t-26 -124t-76 -88.5t-118 -32.5t-118 32.5zM330.5 57q28.5 27 44 74t15.5 104t-15.5 104t-44 74t-65.5 27t-65.5 -27t-44 -74t-15.5 -104t15.5 -104t44 -74t65.5 -27t65.5 27z
M130 520l80 115h110l80 -115h-50l-85 80l-85 -80h-50z" />
    <glyph glyph-name="otilde" unicode="&#xf5;" 
d="M147 22.5q-50 32.5 -76 88.5t-26 124t26 124t76 88.5t118 32.5t118 -32.5t76 -88.5t26 -124t-26 -124t-76 -88.5t-118 -32.5t-118 32.5zM330.5 57q28.5 27 44 74t15.5 104t-15.5 104t-44 74t-65.5 27t-65.5 -27t-44 -74t-15.5 -104t15.5 -104t44 -74t65.5 -27t65.5 27z
M167.5 609.5q14.5 21.5 45.5 21.5q15 0 27.5 -5.5t27.5 -15.5q3 -2 13 -7.5t19 -8.5t18 -3q11 0 20.5 14t9.5 26h30q0 -52 -14.5 -73.5t-45.5 -21.5q-14 0 -26.5 5t-27.5 15q-17 10 -27.5 15t-23.5 5q-11 0 -20.5 -14t-9.5 -26h-30q0 52 14.5 73.5z" />
    <glyph glyph-name="odieresis" unicode="&#xf6;" 
d="M147 22.5q-50 32.5 -76 88.5t-26 124t26 124t76 88.5t118 32.5t118 -32.5t76 -88.5t26 -124t-26 -124t-76 -88.5t-118 -32.5t-118 32.5zM330.5 57q28.5 27 44 74t15.5 104t-15.5 104t-44 74t-65.5 27t-65.5 -27t-44 -74t-15.5 -104t15.5 -104t44 -74t65.5 -27t65.5 27z
M248 548q-13 13 -13 32t13 32t32 13t32 -13t13 -32t-13 -32t-32 -13t-32 13zM418 548q-13 13 -13 32t13 32t32 13t32 -13t13 -32t-13 -32t-32 -13t-32 13z" />
    <glyph glyph-name="divide" unicode="&#xf7;" horiz-adv-x="564" 
d="M250 438q-13 13 -13 32t13 32t32 13t32 -13t13 -32t-13 -32t-32 -13t-32 13zM62 300v60h440v-60h-440zM250 158q-13 13 -13 32t13 32t32 13t32 -13t13 -32t-13 -32t-32 -13t-32 13z" />
    <glyph glyph-name="oslash" unicode="&#xf8;" 
d="M151 20l-13 -20h-73l40 58q-60 69 -60 177q0 68 26 124t76 88.5t118 32.5q64 0 113 -30l14 20h73l-41 -59q29 -33 45 -78.5t16 -97.5q0 -68 -26 -124t-76 -88.5t-118 -32.5q-63 0 -114 30zM343 399q-33 41 -78 41q-37 0 -65.5 -27t-44 -74t-15.5 -104q0 -59 16 -104z
M330.5 57q28.5 27 44 74t15.5 104q0 59 -16 104l-187 -268q32 -41 78 -41q37 0 65.5 27z" />
    <glyph glyph-name="ugrave" unicode="&#xf9;" horiz-adv-x="535" 
d="M120.5 30q-47.5 40 -47.5 140v180q0 51 -14 75.5t-56 24.5h-10v20h80q37 0 55.5 -9.5t26.5 -34.5t8 -76v-180q0 -70 31.5 -102.5t78.5 -32.5q53 0 100 53v382h90v-470h-50l-35 40h-5q-21 -21 -54.5 -35.5t-75.5 -14.5q-75 0 -122.5 40zM258 515l-95 130h95l40 -130h-40z
" />
    <glyph glyph-name="uacute" unicode="&#xfa;" horiz-adv-x="535" 
d="M120.5 30q-47.5 40 -47.5 140v180q0 51 -14 75.5t-56 24.5h-10v20h80q37 0 55.5 -9.5t26.5 -34.5t8 -76v-180q0 -70 31.5 -102.5t78.5 -32.5q53 0 100 53v382h90v-470h-50l-35 40h-5q-21 -21 -54.5 -35.5t-75.5 -14.5q-75 0 -122.5 40zM240 515l40 130h95l-95 -130h-40z
" />
    <glyph glyph-name="ucircumflex" unicode="&#xfb;" horiz-adv-x="535" 
d="M120.5 30q-47.5 40 -47.5 140v180q0 51 -14 75.5t-56 24.5h-10v20h80q37 0 55.5 -9.5t26.5 -34.5t8 -76v-180q0 -70 31.5 -102.5t78.5 -32.5q53 0 100 53v382h90v-470h-50l-35 40h-5q-21 -21 -54.5 -35.5t-75.5 -14.5q-75 0 -122.5 40zM223 530l80 115h110l80 -115h-50
l-85 80l-85 -80h-50z" />
    <glyph glyph-name="udieresis" unicode="&#xfc;" horiz-adv-x="535" 
d="M120.5 30q-47.5 40 -47.5 140v180q0 51 -14 75.5t-56 24.5h-10v20h80q37 0 55.5 -9.5t26.5 -34.5t8 -76v-180q0 -70 31.5 -102.5t78.5 -32.5q53 0 100 53v382h90v-470h-50l-35 40h-5q-21 -21 -54.5 -35.5t-75.5 -14.5q-75 0 -122.5 40zM241 534q-13 13 -13 32t13 32
t32 13t32 -13t13 -32t-13 -32t-32 -13t-32 13zM411 534q-13 13 -13 32t13 32t32 13t32 -13t13 -32t-13 -32t-32 -13t-32 13z" />
    <glyph glyph-name="yacute" unicode="&#xfd;" horiz-adv-x="514" 
d="M105 -170q49 0 80.5 22.5t54.5 82.5l20 55l-160 390q-28 72 -110 80v20h85q87 0 120 -80l114 -277l126 347h50l-195 -535q-29 -79 -64 -107t-91 -28h-30v30zM229 515l40 130h95l-95 -130h-40z" />
    <glyph glyph-name="thorn" unicode="&#xfe;" horiz-adv-x="523" 
d="M72 540q0 51 -14 75.5t-56 24.5h-15v20h85q37 0 55.5 -9.5t26.5 -34.5t8 -76v-115q18 23 51 39t84 16q86 0 133 -69.5t47 -175.5q0 -107 -48.5 -176t-141.5 -69q-38 0 -67 8t-58 22v-210h-90v730zM351.5 86q30.5 56 30.5 149q0 92 -29 148.5t-86 56.5q-67 0 -105 -60
v-320q30 -14 52 -22t43 -8q64 0 94.5 56z" />
    <glyph glyph-name="ydieresis" unicode="&#xff;" horiz-adv-x="514" 
d="M105 -170q49 0 80.5 22.5t54.5 82.5l20 55l-160 390q-28 72 -110 80v20h85q87 0 120 -80l114 -277l126 347h50l-195 -535q-29 -79 -64 -107t-91 -28h-30v30zM273 534q-13 13 -13 32t13 32t32 13t32 -13t13 -32t-13 -32t-32 -13t-32 13zM443 534q-13 13 -13 32t13 32
t32 13t32 -13t13 -32t-13 -32t-32 -13t-32 13z" />
    <glyph glyph-name="Abreve" unicode="&#x102;" horiz-adv-x="635" 
d="M527 21.5q-47 26.5 -75 103.5l-25 65h-280l-80 -190h-45l280 660h30l220 -535q25 -58 47 -79.5t63 -25.5v-20q-18 -5 -40 -5q-48 0 -95 26.5zM162 230h245l-120 290zM188 781l20 15q20 -20 45 -30t65 -10t65 10t45 30l20 -15q-44 -80 -130 -80t-130 80z" />
    <glyph glyph-name="abreve" unicode="&#x103;" horiz-adv-x="481" 
d="M119 3.5q-33 13.5 -56.5 44.5t-23.5 82q0 76 70.5 108t184.5 32h30q0 98 -27 134t-78 36q-45 0 -72 -19t-38 -66h-45q0 34 4 53.5t21 36.5q18 18 59.5 26.5t90.5 8.5q81 0 128 -43.5t47 -166.5v-270h-50l-35 45h-5q-18 -23 -53 -39t-87 -16q-32 0 -65 13.5zM284 51
q22 16 40 44v135h-30q-74 0 -117 -27.5t-43 -72.5q0 -46 27.5 -70.5t67.5 -24.5q33 0 55 16zM111 591l20 15q20 -20 45 -30t65 -10t65 10t45 30l20 -15q-44 -80 -130 -80t-130 80z" />
    <glyph glyph-name="Dcroat" unicode="&#x110;" horiz-adv-x="715" 
d="M106 310h-75v40h75v190q0 51 -14 75.5t-56 24.5h-20v20h262q194 0 293.5 -86t99.5 -240q0 -99 -42 -174.5t-124.5 -117.5t-200.5 -42h-198v310zM434.5 71.5q59.5 36.5 93.5 103t34 155.5q0 87 -33.5 154t-93.5 104t-136 37q-48 0 -100 -16v-259h87v-40h-87v-262
q56 -13 102 -13q74 0 133.5 36.5z" />
    <glyph glyph-name="dcroat" unicode="&#x111;" horiz-adv-x="523" 
d="M493 516h-41v-516h-50l-35 45h-5q-22 -25 -51.5 -40t-83.5 -15q-87 0 -133.5 69t-46.5 176t48.5 176t141.5 69q38 0 67 -8t58 -22v66h-149v40h149q-2 42 -17 63t-53 21h-20v20h90q35 0 53.5 -8.5t27 -30.5t9.5 -65h41v-40zM362 410q-30 14 -52 22t-43 8q-64 0 -94.5 -56
t-30.5 -149q0 -92 29 -148.5t86 -56.5q41 0 62 15t43 45v320z" />
    <glyph glyph-name="Gbreve" unicode="&#x11e;" horiz-adv-x="720" 
d="M208.5 28q-77.5 48 -121 130.5t-43.5 181.5q0 95 38 172.5t108.5 122.5t163.5 45q86 0 148.5 -22.5t91.5 -57.5q16 -20 20.5 -53t4.5 -82h-20q-19 88 -72 131.5t-143 43.5q-81 0 -135 -42.5t-79.5 -110.5t-25.5 -147q0 -169 66 -244.5t174 -75.5q51 0 87 9t68 26v174
q0 34 11 59t47.5 41.5t106.5 16.5v-20q-45 0 -60 -23t-15 -72v-188q-54 -33 -113 -48t-132 -15q-98 0 -175.5 48zM235 820l20 15q36 -45 110 -45t110 45l20 -15q-40 -90 -130 -90t-130 90z" />
    <glyph glyph-name="gbreve" unicode="&#x11f;" horiz-adv-x="492" 
d="M85.5 -163q-59.5 37 -59.5 118q0 46 31 80t79 50q-40 22 -40 60q0 20 9 31t26 24q-32 16 -53.5 50t-21.5 80q0 150 190 150h185v-25l-65 -10v-5q31 -16 50.5 -44.5t19.5 -65.5q0 -150 -190 -150q-105 0 -105 -35t105 -35q97 0 158.5 -38.5t61.5 -116.5q0 -81 -59.5 -118
t-160.5 -37t-160.5 37zM318.5 242.5q27.5 27.5 27.5 87.5q0 57 -27.5 86t-72.5 29t-72.5 -27.5t-27.5 -87.5t27.5 -87.5t72.5 -27.5t72.5 27.5zM341 -131.5q35 28.5 35 86.5q0 100 -120 115l-55 5q-41 -16 -63 -45t-22 -75q0 -58 35 -86.5t95 -28.5t95 28.5zM116 621l20 15
q36 -45 110 -45t110 45l20 -15q-40 -90 -130 -90t-130 90z" />
    <glyph glyph-name="Itilde" unicode="&#x128;" horiz-adv-x="285" 
d="M123.5 9.5q-18.5 9.5 -26.5 34.5t-8 76v540h90v-540q0 -51 14 -75.5t56 -24.5h20v-20h-90q-37 0 -55.5 9.5zM44.5 819.5q14.5 21.5 45.5 21.5q15 0 27.5 -5.5t27.5 -15.5q3 -2 13 -7.5t19 -8.5t18 -3q11 0 20.5 14t9.5 26h30q0 -52 -14.5 -73.5t-45.5 -21.5
q-14 0 -26.5 5t-27.5 15q-17 10 -27.5 15t-23.5 5q-11 0 -20.5 -14t-9.5 -26h-30q0 52 14.5 73.5z" />
    <glyph glyph-name="itilde" unicode="&#x129;" horiz-adv-x="246" 
d="M87 350q0 51 -14 75.5t-56 24.5h-20v20h90q37 0 55.5 -9.5t26.5 -34.5t8 -76v-350h-90v350zM24.5 629.5q14.5 21.5 45.5 21.5q15 0 27.5 -5.5t27.5 -15.5q3 -2 13 -7.5t19 -8.5t18 -3q11 0 20.5 14t9.5 26h30q0 -52 -14.5 -73.5t-45.5 -21.5q-14 0 -26.5 5t-27.5 15
q-17 10 -27.5 15t-23.5 5q-11 0 -20.5 -14t-9.5 -26h-30q0 52 14.5 73.5z" />
    <glyph glyph-name="Idotaccent" unicode="&#x130;" horiz-adv-x="285" 
d="M97.5 729q-16.5 19 -16.5 45q0 21 12.5 33t33.5 12q23 0 39.5 -19t16.5 -45q0 -21 -12.5 -33t-33.5 -12q-23 0 -39.5 19zM123.5 9.5q-18.5 9.5 -26.5 34.5t-8 76v540h90v-540q0 -51 14 -75.5t56 -24.5h20v-20h-90q-37 0 -55.5 9.5z" />
    <glyph glyph-name="dotlessi" unicode="&#x131;" horiz-adv-x="246" 
d="M87 350q0 51 -14 75.5t-56 24.5h-20v20h90q37 0 55.5 -9.5t26.5 -34.5t8 -76v-350h-90v350z" />
    <glyph glyph-name="OE" unicode="&#x152;" horiz-adv-x="945" 
d="M192.5 26q-70.5 46 -108.5 126t-38 178t38 178t108.5 126t163.5 46q63 0 110 -20h331q85 0 85 -80v-75h-20q0 115 -125 115h-186v-260h270v-40h-270v-280h175q69 0 108 25t62 85l20 -5l-35 -95q-18 -50 -75 -50h-340q-47 -20 -110 -20q-93 0 -163.5 46zM461 52v558
q-45 30 -105 30q-65 0 -112.5 -38t-72.5 -107.5t-25 -164.5t25 -164.5t72.5 -107.5t112.5 -38q61 0 105 32z" />
    <glyph glyph-name="oe" unicode="&#x153;" horiz-adv-x="795" 
d="M147 22.5q-50 32.5 -76 88.5t-26 124t26 124t76 88.5t118 32.5q97 0 151 -59q51 59 134 59q101 0 150.5 -56.5t49.5 -163.5l-2 -40h-298q0 -84 36 -137t99 -53q47 0 79.5 20t60.5 60l20 -15q-33 -55 -77 -80t-103 -25q-90 0 -150 60q-60 -60 -150 -60q-68 0 -118 32.5z
M329 54q27 24 46 71q-20 45 -20 110t20 110q-16 43 -44.5 69t-65.5 26t-65.5 -27t-44 -74t-15.5 -104t15.5 -104t44 -74t65.5 -27t64 24zM660 260q0 85 -26.5 130t-78.5 45q-30 0 -54 -23t-37.5 -63t-13.5 -89h210z" />
    <glyph glyph-name="Scedilla" unicode="&#x15e;" horiz-adv-x="533" 
d="M232 -145h50q40 0 40 32q0 33 -40 33h-45v66q-77 9 -130 41t-53 78v107h18q17 -100 66 -144.5t135 -44.5q54 0 92.5 27t38.5 75q0 42 -26 73t-84 65l-123 73q-64 38 -90.5 77t-26.5 95q0 77 53.5 123.5t140.5 46.5q51 0 101 -14.5t82.5 -42t32.5 -63.5v-107h-18
q-17 100 -64.5 143.5t-133.5 43.5q-46 0 -81 -28t-35 -73q0 -41 25.5 -68t85.5 -63l123 -73q68 -41 96 -76t28 -89q0 -84 -56 -134.5t-152 -50.5v-23h10q35 0 57.5 -19t22.5 -54q0 -34 -22.5 -53.5t-57.5 -19.5h-60v41z" />
    <glyph glyph-name="scedilla" unicode="&#x15f;" horiz-adv-x="448" 
d="M187 -135h50q40 0 40 32q0 33 -40 33h-45v61q-86 6 -117 39q-17 17 -21 38.5t-4 66.5h20q9 -50 43.5 -77.5t96.5 -27.5q55 0 82.5 19t27.5 51q0 29 -21.5 50t-68.5 40l-60 25q-60 24 -90 56t-30 79q0 61 46 95.5t119 34.5q110 0 150 -40q17 -17 21 -38t4 -67h-20
q-8 50 -42 77.5t-93 27.5q-47 0 -73.5 -19.5t-26.5 -50.5q0 -52 80 -85l60 -25q68 -28 99 -59.5t31 -80.5q0 -61 -46.5 -94.5t-121.5 -35.5v-20h10q35 0 57.5 -19t22.5 -54q0 -34 -22.5 -53.5t-57.5 -19.5h-60v41z" />
    <glyph glyph-name="Scaron" unicode="&#x160;" horiz-adv-x="533" 
d="M174 -2q-53 15 -86.5 43t-33.5 64v107h18q17 -100 66 -144.5t135 -44.5q54 0 92.5 27t38.5 75q0 42 -26 73t-84 65l-123 73q-64 38 -90.5 77t-26.5 95q0 77 53.5 123.5t140.5 46.5q51 0 101 -14.5t82.5 -42t32.5 -63.5v-107h-18q-17 100 -64.5 143.5t-133.5 43.5
q-46 0 -81 -28t-35 -73q0 -41 25.5 -68t85.5 -63l123 -73q68 -41 96 -76t28 -89q0 -84 -56 -134.5t-152 -50.5q-55 0 -108 15zM199 720l-80 115h50l85 -80l85 80h50l-80 -115h-110z" />
    <glyph glyph-name="scaron" unicode="&#x161;" horiz-adv-x="446" 
d="M74 30q-17 17 -21 38.5t-4 66.5h20q9 -50 43.5 -77.5t96.5 -27.5q55 0 82.5 19t27.5 51q0 29 -21.5 50t-68.5 40l-60 25q-60 24 -90 56t-30 79q0 61 46 95.5t119 34.5q110 0 150 -40q17 -17 21 -38t4 -67h-20q-8 50 -42 77.5t-93 27.5q-47 0 -73.5 -19.5t-26.5 -50.5
q0 -52 80 -85l60 -25q68 -28 99 -59.5t31 -80.5q0 -61 -49 -95.5t-126 -34.5q-115 0 -155 40zM159 520l-80 115h50l85 -80l85 80h50l-80 -115h-110z" />
    <glyph glyph-name="Utilde" unicode="&#x168;" horiz-adv-x="687" 
d="M202 22.5q-56 32.5 -79.5 96.5t-23.5 166v255q0 51 -14 75.5t-56 24.5h-20v20h90q37 0 55.5 -9.5t26.5 -34.5t8 -76v-285q0 -111 41 -168t136 -57q76 0 120.5 27t63.5 82t19 146v375h40v-375q0 -104 -22 -167.5t-77.5 -95.5t-155.5 -32q-96 0 -152 32.5zM245.5 819.5
q14.5 21.5 45.5 21.5q15 0 27.5 -5.5t27.5 -15.5q3 -2 13 -7.5t19 -8.5t18 -3q11 0 20.5 14t9.5 26h30q0 -52 -14.5 -73.5t-45.5 -21.5q-14 0 -26.5 5t-27.5 15q-17 10 -27.5 15t-23.5 5q-11 0 -20.5 -14t-9.5 -26h-30q0 52 14.5 73.5z" />
    <glyph glyph-name="utilde" unicode="&#x169;" horiz-adv-x="535" 
d="M120.5 30q-47.5 40 -47.5 140v180q0 51 -14 75.5t-56 24.5h-10v20h80q37 0 55.5 -9.5t26.5 -34.5t8 -76v-180q0 -70 31.5 -102.5t78.5 -32.5q53 0 100 53v382h90v-470h-50l-35 40h-5q-21 -21 -54.5 -35.5t-75.5 -14.5q-75 0 -122.5 40zM169.5 629.5q14.5 21.5 45.5 21.5
q15 0 27.5 -5.5t27.5 -15.5q3 -2 13 -7.5t19 -8.5t18 -3q11 0 20.5 14t9.5 26h30q0 -52 -14.5 -73.5t-45.5 -21.5q-14 0 -26.5 5t-27.5 15q-17 10 -27.5 15t-23.5 5q-11 0 -20.5 -14t-9.5 -26h-30q0 52 14.5 73.5z" />
    <glyph glyph-name="Ydieresis" unicode="&#x178;" horiz-adv-x="628" 
d="M290 273l-170 257q-26 37 -44 58t-42.5 35.5t-58.5 16.5v20h90q50 0 84 -29.5t66 -80.5l145 -225l209 335h45l-234 -380v-280h-90v273zM228.5 703.5q-13.5 13.5 -13.5 36.5t13.5 36.5t36.5 13.5t36.5 -13.5t13.5 -36.5t-13.5 -36.5t-36.5 -13.5t-36.5 13.5zM398.5 703.5
q-13.5 13.5 -13.5 36.5t13.5 36.5t36.5 13.5t36.5 -13.5t13.5 -36.5t-13.5 -36.5t-36.5 -13.5t-36.5 13.5z" />
    <glyph glyph-name="Zcaron" unicode="&#x17d;" horiz-adv-x="591" 
d="M24 20l415 600h-240q-125 0 -125 -115h-20v75q0 80 85 80h435l-425 -620h410v-40h-535v20zM253 710l-80 115h50l85 -80l85 80h50l-80 -115h-110z" />
    <glyph glyph-name="zcaron" unicode="&#x17e;" horiz-adv-x="466" 
d="M44 19l260 411h-115q-62 0 -93.5 -23.5t-31.5 -66.5h-20v50q0 80 85 80h305l-270 -430h270v-40h-390v19zM188 520l-80 115h50l85 -80l85 80h50l-80 -115h-110z" />
    <glyph glyph-name="florin" unicode="&#x192;" horiz-adv-x="405" 
d="M-81 -170q47 0 79.5 51t48.5 144l71 405h-70l7 40h70l6 30q33 170 205 170q63 0 82 -15q18 -13 27 -45l-34 -25q-11 23 -32 34t-55 11q-36 0 -62.5 -30t-40.5 -100l-6 -30h140l-7 -40h-140l-71 -405q-14 -78 -38.5 -124.5t-68.5 -68.5t-115 -22z" />
    <glyph glyph-name="Ohorn" unicode="&#x1a0;" horiz-adv-x="712" 
d="M625.5 513q40.5 -82 40.5 -183q0 -98 -38 -178t-108.5 -126t-163.5 -46t-163.5 46t-108.5 126t-38 178t38 178t108.5 126t163.5 46q60 0 111 -20q46 3 69 33.5t23 70.5h57q0 -105 -104 -126q73 -43 113.5 -125zM468.5 58q47.5 38 72.5 107.5t25 164.5t-25 164.5
t-72.5 107.5t-112.5 38t-112.5 -38t-72.5 -107.5t-25 -164.5t25 -164.5t72.5 -107.5t112.5 -38t112.5 38z" />
    <glyph glyph-name="ohorn" unicode="&#x1a1;" 
d="M457.5 361.5q27.5 -56.5 27.5 -126.5q0 -68 -26 -124t-76 -88.5t-118 -32.5t-118 32.5t-76 88.5t-26 124t26 124t76 88.5t118 32.5q38 0 68 -10q46 3 69 33.5t23 70.5h57q0 -104 -102 -125q50 -31 77.5 -87.5zM330.5 57q28.5 27 44 74t15.5 104t-15.5 104t-44 74
t-65.5 27t-65.5 -27t-44 -74t-15.5 -104t15.5 -104t44 -74t65.5 -27t65.5 27z" />
    <glyph glyph-name="Uhorn" unicode="&#x1af;" horiz-adv-x="687" 
d="M609 636v-351q0 -104 -22 -167.5t-77.5 -95.5t-155.5 -32q-96 0 -152 32.5t-79.5 96.5t-23.5 166v255q0 51 -14 75.5t-56 24.5h-20v20h90q37 0 55.5 -9.5t26.5 -34.5t8 -76v-285q0 -111 41 -168t136 -57q76 0 120.5 27t63.5 82t19 146v375h7q50 0 75 31t25 73h57
q0 -115 -124 -128z" />
    <glyph glyph-name="uhorn" unicode="&#x1b0;" horiz-adv-x="535" 
d="M463 445v-445h-50l-35 40h-5q-21 -21 -54.5 -35.5t-75.5 -14.5q-75 0 -122.5 40t-47.5 140v180q0 51 -14 75.5t-56 24.5h-10v20h80q37 0 55.5 -9.5t26.5 -34.5t8 -76v-180q0 -70 31.5 -102.5t78.5 -32.5q53 0 100 53v382h69q50 0 75 31t25 73h57q0 -121 -136 -129z" />
    <glyph glyph-name="uni02BC" unicode="&#x2bc;" horiz-adv-x="325" 
d="M105 530q40 27 60 59.5t20 75.5l-30 -10q-23 0 -39 16t-16 39q0 26 17 43t43 17q30 0 47.5 -18.5t17.5 -51.5q0 -123 -110 -185z" />
    <glyph glyph-name="circumflex" unicode="&#x2c6;" horiz-adv-x="310" 
d="M20 660l80 115h110l80 -115h-50l-85 80l-85 -80h-50z" />
    <glyph glyph-name="caron" unicode="&#x2c7;" horiz-adv-x="270" 
d="M80 520l-80 115h50l85 -80l85 80h50l-80 -115h-110z" />
    <glyph glyph-name="breve" unicode="&#x2d8;" horiz-adv-x="260" 
d="M0 601l20 15q20 -20 45 -30t65 -10t65 10t45 30l20 -15q-44 -80 -130 -80t-130 80z" />
    <glyph glyph-name="ring" unicode="&#x2da;" horiz-adv-x="170" 
d="M25.5 555.5q-25.5 25.5 -25.5 59.5t25.5 59.5t59.5 25.5t59.5 -25.5t25.5 -59.5t-25.5 -59.5t-59.5 -25.5t-59.5 25.5zM117 578.5q13 13.5 13 36.5t-13 36.5t-32 13.5t-32 -13.5t-13 -36.5t13 -36.5t32 -13.5t32 13.5z" />
    <glyph glyph-name="tilde" unicode="&#x2dc;" horiz-adv-x="265" 
d="M34.5 753.5q14.5 21.5 45.5 21.5q15 0 27.5 -5.5t27.5 -15.5q3 -2 13 -7.5t19 -8.5t18 -3q11 0 20.5 14t9.5 26h30q0 -52 -14.5 -73.5t-45.5 -21.5q-14 0 -26.5 5t-27.5 15q-17 10 -27.5 15t-23.5 5q-11 0 -20.5 -14t-9.5 -26h-30q0 52 14.5 73.5z" />
    <glyph glyph-name="gravecomb" unicode="&#x300;" horiz-adv-x="0" 
d="M-140 525l-95 130h95l40 -130h-40z" />
    <glyph glyph-name="acutecomb" unicode="&#x301;" horiz-adv-x="0" 
d="M-235 525l40 130h95l-95 -130h-40z" />
    <glyph glyph-name="uni0302" unicode="&#x302;" horiz-adv-x="0" 
d="M-370 530l80 115h110l80 -115h-50l-85 80l-85 -80h-50z" />
    <glyph glyph-name="tildecomb" unicode="&#x303;" horiz-adv-x="0" 
d="M-310.5 639.5q14.5 21.5 45.5 21.5q15 0 27.5 -5.5t27.5 -15.5q3 -2 13 -7.5t19 -8.5t18 -3q11 0 20.5 14t9.5 26h30q0 -52 -14.5 -73.5t-45.5 -21.5q-14 0 -26.5 5t-27.5 15q-17 10 -27.5 15t-23.5 5q-11 0 -20.5 -14t-9.5 -26h-30q0 52 14.5 73.5z" />
    <glyph glyph-name="uni0304" unicode="&#x304;" horiz-adv-x="0" 
d="M-355 560v60h255v-60h-255z" />
    <glyph glyph-name="uni0306" unicode="&#x306;" horiz-adv-x="0" 
d="M-360 601l20 15q20 -20 45 -30t65 -10t65 10t45 30l20 -15q-44 -80 -130 -80t-130 80z" />
    <glyph glyph-name="uni0308" unicode="&#x308;" horiz-adv-x="0" 
d="M-347 548q-13 13 -13 32t13 32t32 13t32 -13t13 -32t-13 -32t-32 -13t-32 13zM-177 548q-13 13 -13 32t13 32t32 13t32 -13t13 -32t-13 -32t-32 -13t-32 13z" />
    <glyph glyph-name="hookabovecomb" unicode="&#x309;" horiz-adv-x="0" 
d="M-309.5 555.5q5.5 14.5 15.5 31.5q5 9 9 17.5t4 16.5q0 14 -8.5 22t-24.5 8q-20 0 -31.5 -11t-16.5 -39l-42 1q0 40 24.5 63t65.5 23q33 0 58.5 -14.5t25.5 -42.5q0 -13 -6 -23.5t-18 -24.5q-14 -16 -22 -29.5t-9 -32.5h-31q1 20 6.5 34.5z" />
    <glyph glyph-name="uni030A" unicode="&#x30a;" horiz-adv-x="0" 
d="M-244.5 555.5q-25.5 25.5 -25.5 59.5t25.5 59.5t59.5 25.5t59.5 -25.5t25.5 -59.5t-25.5 -59.5t-59.5 -25.5t-59.5 25.5zM-153 578.5q13 13.5 13 36.5t-13 36.5t-32 13.5t-32 -13.5t-13 -36.5t13 -36.5t32 -13.5t32 13.5z" />
    <glyph glyph-name="uni030B" unicode="&#x30b;" horiz-adv-x="0" 
d="M-305 525l40 130h65l-75 -130h-30zM-205 525l40 130h65l-75 -130h-30z" />
    <glyph glyph-name="uni030C" unicode="&#x30c;" horiz-adv-x="0" 
d="M-290 520l-80 115h50l85 -80l85 80h50l-80 -115h-110z" />
    <glyph glyph-name="uni031B" unicode="&#x31b;" horiz-adv-x="0" 
d="M-196 470q50 0 75 31t25 73h57q0 -130 -157 -130v26z" />
    <glyph glyph-name="dotbelowcomb" unicode="&#x323;" horiz-adv-x="0" 
d="M-141.5 -143.5q-13.5 13.5 -13.5 32.5q0 18 13.5 31t31.5 13q19 0 31.5 -13t12.5 -31q0 -19 -13 -32.5t-31 -13.5t-31.5 13.5z" />
    <glyph glyph-name="uni0326" unicode="&#x326;" horiz-adv-x="0" 
d="M-220 -310q40 27 60 59.5t20 75.5l-30 -10q-23 0 -39 16t-16 39q0 26 17 43t43 17q30 0 47.5 -18.5t17.5 -51.5q0 -123 -110 -185z" />
    <glyph glyph-name="uni0327" unicode="&#x327;" horiz-adv-x="0" 
d="M-240 -155h50q40 0 40 32q0 33 -40 33h-45v90h45v-50h10q35 0 57.5 -19t22.5 -54q0 -34 -22.5 -53.5t-57.5 -19.5h-60v41z" />
    <glyph glyph-name="uni0335" unicode="&#x335;" horiz-adv-x="0" 
d="M-380 225v40h280v-40h-280z" />
    <glyph glyph-name="uni0400" unicode="&#x400;" horiz-adv-x="590" 
d="M106 540q0 51 -14 75.5t-56 24.5h-20v20h426q85 0 85 -80v-75h-20q0 115 -125 115h-186v-260h270v-40h-270v-280h175q69 0 108 25t62 85l20 -5l-35 -95q-18 -50 -75 -50h-345v540zM285 705l-95 130h95l40 -130h-40z" />
    <glyph glyph-name="uni0401" unicode="&#x401;" horiz-adv-x="590" 
d="M106 540q0 51 -14 75.5t-56 24.5h-20v20h426q85 0 85 -80v-75h-20q0 115 -125 115h-186v-260h270v-40h-270v-280h175q69 0 108 25t62 85l20 -5l-35 -95q-18 -50 -75 -50h-345v540zM168.5 743.5q-13.5 13.5 -13.5 36.5t13.5 36.5t36.5 13.5t36.5 -13.5t13.5 -36.5
t-13.5 -36.5t-36.5 -13.5t-36.5 13.5zM338.5 743.5q-13.5 13.5 -13.5 36.5t13.5 36.5t36.5 13.5t36.5 -13.5t13.5 -36.5t-13.5 -36.5t-36.5 -13.5t-36.5 13.5z" />
    <glyph glyph-name="uni0402" unicode="&#x402;" horiz-adv-x="674" 
d="M585.5 382q53.5 -48 53.5 -182q0 -90 -16.5 -141.5t-56 -75t-112.5 -23.5v20q95 0 95 220q0 103 -38 144t-102 41q-36 0 -75.5 -12t-64.5 -28v-345h-90v620h-13q-125 0 -125 -115h-20v75q0 80 85 80h445v-40h-282v-230q25 16 72.5 28t97.5 12q93 0 146.5 -48z" />
    <glyph glyph-name="uni0403" unicode="&#x403;" horiz-adv-x="537" 
d="M236 700l70 115h85l-105 -115h-50zM106 540q0 51 -14 75.5t-56 24.5h-20v20h415q85 0 85 -80v-75h-20q0 115 -125 115h-175v-620h-90v540z" />
    <glyph glyph-name="uni0404" unicode="&#x404;" horiz-adv-x="665" 
d="M190.5 25q-70.5 45 -108.5 122.5t-38 172.5q0 98 41.5 181t113 131t155.5 48q80 0 140.5 -22.5t89.5 -57.5q17 -21 21 -55.5t4 -94.5h-20q-19 97 -70 143.5t-135 46.5q-102 0 -167 -69t-73 -221h331v-40h-331q3 -77 29 -143t79.5 -106.5t131.5 -40.5q73 0 127.5 35
t97.5 105l20 -15q-46 -90 -113.5 -127.5t-161.5 -37.5q-93 0 -163.5 45z" />
    <glyph glyph-name="uni0405" unicode="&#x405;" horiz-adv-x="533" 
d="M174 -2q-53 15 -86.5 43t-33.5 64v107h18q17 -100 66 -144.5t135 -44.5q54 0 92.5 27t38.5 75q0 42 -26 73t-84 65l-123 73q-64 38 -90.5 77t-26.5 95q0 77 53.5 123.5t140.5 46.5q51 0 101 -14.5t82.5 -42t32.5 -63.5v-107h-18q-17 100 -64.5 143.5t-133.5 43.5
q-46 0 -81 -28t-35 -73q0 -41 25.5 -68t85.5 -63l123 -73q68 -41 96 -76t28 -89q0 -84 -56 -134.5t-152 -50.5q-55 0 -108 15z" />
    <glyph glyph-name="uni0406" unicode="&#x406;" horiz-adv-x="285" 
d="M123.5 9.5q-18.5 9.5 -26.5 34.5t-8 76v540h90v-540q0 -51 14 -75.5t56 -24.5h20v-20h-90q-37 0 -55.5 9.5z" />
    <glyph glyph-name="uni0407" unicode="&#x407;" horiz-adv-x="285" 
d="M20.5 728.5q-13.5 13.5 -13.5 36.5t13.5 36.5t36.5 13.5t36.5 -13.5t13.5 -36.5t-13.5 -36.5t-36.5 -13.5t-36.5 13.5zM174.5 728.5q-13.5 13.5 -13.5 36.5t13.5 36.5t36.5 13.5t36.5 -13.5t13.5 -36.5t-13.5 -36.5t-36.5 -13.5t-36.5 13.5zM123.5 9.5
q-18.5 9.5 -26.5 34.5t-8 76v540h90v-540q0 -51 14 -75.5t56 -24.5h20v-20h-90q-37 0 -55.5 9.5z" />
    <glyph glyph-name="uni0408" unicode="&#x408;" horiz-adv-x="261" 
d="M-9 -117q48 0 71.5 51t23.5 144v582h90v-582q0 -78 -16.5 -124.5t-56.5 -68.5t-112 -22v20z" />
    <glyph glyph-name="uni0409" unicode="&#x409;" horiz-adv-x="964" 
d="M-6 -1v25q50 2 85.5 43t57.5 153.5t22 319.5q0 51 -14 75.5t-56 24.5h-10v20h485v-280h110q110 0 187.5 -41t77.5 -149t-77.5 -149t-187.5 -41h-200v620h-240v-80q0 -216 -25.5 -337.5t-67 -167t-97.5 -45.5q-23 0 -50 9zM792 74q47 39 47 116t-47 116t-133 39
q-53 0 -95 -15v-280q42 -15 95 -15q86 0 133 39z" />
    <glyph glyph-name="uni040A" unicode="&#x40a;" horiz-adv-x="974" 
d="M106 540q0 51 -14 75.5t-56 24.5h-20v20h90q37 0 55.5 -9.5t26.5 -34.5t8 -76v-180h290v300h90v-300h110q109 0 187 -39.5t78 -140.5t-78 -140.5t-187 -39.5h-200v320h-290v-320h-90v540zM803.5 72q47.5 37 47.5 108t-47.5 108t-132.5 37q-53 0 -95 -15v-260
q42 -15 95 -15q85 0 132.5 37z" />
    <glyph glyph-name="uni040B" unicode="&#x40b;" horiz-adv-x="690" 
d="M585 390q55 -40 55 -140v-250h-90v250q0 70 -39 102.5t-101 32.5q-36 0 -75.5 -12t-64.5 -28v-345h-90v620h-14q-125 0 -125 -115h-20v75q0 80 85 80h445v-40h-281v-230q25 16 72.5 28t97.5 12q90 0 145 -40z" />
    <glyph glyph-name="uni040C" unicode="&#x40c;" horiz-adv-x="677" 
d="M276 675l70 115h85l-105 -115h-50zM523 15.5q-51 25.5 -117 94.5l-210 220v-330h-90v540q0 51 -14 75.5t-56 24.5h-20v20h90q37 0 55.5 -9.5t26.5 -34.5t8 -76v-195l210 210l20 21q28 29 47 45.5t45 27.5t58 11h50v-25q-42 0 -73 -14.5t-72 -55.5l-195 -195l230 -240
q100 -100 170 -111v-19q-30 -10 -65 -10q-47 0 -98 25.5z" />
    <glyph glyph-name="uni040D" unicode="&#x40d;" horiz-adv-x="692" 
d="M106 540q0 51 -14 75.5t-56 24.5h-20v20h90q37 0 55.5 -9.5t26.5 -34.5t8 -76v-450l320 570h90v-660h-90v570l-320 -570h-90v540zM336 705l-95 130h95l40 -130h-40z" />
    <glyph glyph-name="uni040E" unicode="&#x40e;" horiz-adv-x="607" 
d="M132 20q52 0 93 17t57 58l10 25l-185 410q-15 36 -29 57t-39 36t-67 17v20h120q43 0 70.5 -29.5t49.5 -80.5l135 -300l180 410h60l-246 -565q-45 -105 -159 -105h-50v30zM186 800l20 15q36 -45 110 -45t110 45l20 -15q-40 -90 -130 -90t-130 90z" />
    <glyph glyph-name="uni040F" unicode="&#x40f;" horiz-adv-x="672" 
d="M306 0h-200v540q0 51 -14 75.5t-56 24.5h-20v20h90q37 0 55.5 -9.5t26.5 -34.5t8 -76v-500h300v620h90v-660h-200l-15 -175h-50z" />
    <glyph glyph-name="uni0410" unicode="&#x410;" horiz-adv-x="635" 
d="M527 21.5q-47 26.5 -75 103.5l-25 65h-280l-80 -190h-45l280 660h30l220 -535q25 -58 47 -79.5t63 -25.5v-20q-18 -5 -40 -5q-48 0 -95 26.5zM162 230h245l-120 290z" />
    <glyph glyph-name="uni0411" unicode="&#x411;" horiz-adv-x="608" 
d="M106 540q0 51 -14 75.5t-56 24.5h-20v20h421q85 0 85 -80v-75h-20q0 115 -125 115h-181v-240h110q110 0 187.5 -41t77.5 -149t-77.5 -149t-187.5 -41h-200v540zM423.5 74q47.5 39 47.5 116t-47.5 116t-132.5 39q-47 0 -95 -14v-282q48 -14 95 -14q85 0 132.5 39z" />
    <glyph glyph-name="uni0412" unicode="&#x412;" horiz-adv-x="622" 
d="M106 540q0 51 -14 75.5t-56 24.5h-20v20h260q109 0 189.5 -36t80.5 -139q0 -47 -32 -85t-98 -60q92 -15 128.5 -54.5t36.5 -105.5q0 -101 -79.5 -140.5t-195.5 -39.5h-200v540zM291 355q41 0 77.5 15.5t59.5 46t23 73.5q0 45 -27 75.5t-68.5 45t-84.5 14.5q-35 0 -75 -10
v-260h95zM431.5 71q49.5 36 49.5 104t-48.5 104t-141.5 36h-95v-266q48 -14 95 -14q91 0 140.5 36z" />
    <glyph glyph-name="uni0413" unicode="&#x413;" horiz-adv-x="537" 
d="M106 540q0 51 -14 75.5t-56 24.5h-20v20h415q85 0 85 -80v-75h-20q0 115 -125 115h-175v-620h-90v540z" />
    <glyph glyph-name="uni0414" unicode="&#x414;" horiz-adv-x="687" 
d="M3 5q0 15 10 25t25 10h40q46 100 65.5 223.5t19.5 276.5q0 51 -14 75.5t-56 24.5h-15v20h500v-620h55q15 0 25 -10t10 -25v-185h-45q-12 100 -41 140t-84 40h-325q-55 0 -84 -40t-41 -140h-45v185zM488 40v580h-260q0 -207 -18.5 -343t-61.5 -237h340z" />
    <glyph glyph-name="uni0415" unicode="&#x415;" horiz-adv-x="590" 
d="M106 540q0 51 -14 75.5t-56 24.5h-20v20h426q85 0 85 -80v-75h-20q0 115 -125 115h-186v-260h270v-40h-270v-280h175q69 0 108 25t62 85l20 -5l-35 -95q-18 -50 -75 -50h-345v540z" />
    <glyph glyph-name="uni0416" unicode="&#x416;" horiz-adv-x="949" 
d="M-9 0v19q34 4 79 35t81 76l190 240l-155 195q-31 40 -64 55t-71 15v25h50q47 0 83 -26.5t77 -78.5l170 -210v315h87v-315l170 210q38 49 75.5 77t84.5 28h50v-25q-38 0 -71 -15t-64 -55l-155 -195l190 -240q36 -45 81 -76t79 -35v-19q-30 -10 -65 -10q-45 0 -98.5 25.5
t-106.5 94.5l-170 220v-330h-87v330l-170 -220q-53 -69 -106.5 -94.5t-98.5 -25.5q-35 0 -65 10z" />
    <glyph glyph-name="uni0417" unicode="&#x417;" horiz-adv-x="570" 
d="M131.5 8.5q-58.5 28.5 -101.5 96.5l20 15q75 -100 205 -100q80 0 127.5 38.5t47.5 106.5q0 73 -48.5 111.5t-141.5 38.5h-75v40h75q71 0 120.5 38.5t49.5 106.5q0 67 -44.5 103.5t-105.5 36.5q-72 0 -121.5 -42.5t-68.5 -117.5h-20q0 55 4 82t21 48q25 31 80.5 50.5
t109.5 19.5q99 0 169.5 -39t70.5 -146q0 -51 -35 -92t-105 -63q89 -17 127 -60t38 -110q0 -104 -78 -147t-182 -43q-80 0 -138.5 28.5z" />
    <glyph glyph-name="uni0418" unicode="&#x418;" horiz-adv-x="692" 
d="M106 540q0 51 -14 75.5t-56 24.5h-20v20h90q37 0 55.5 -9.5t26.5 -34.5t8 -76v-450l320 570h90v-660h-90v570l-320 -570h-90v540z" />
    <glyph glyph-name="uni0419" unicode="&#x419;" horiz-adv-x="692" 
d="M106 540q0 51 -14 75.5t-56 24.5h-20v20h90q37 0 55.5 -9.5t26.5 -34.5t8 -76v-450l320 570h90v-660h-90v570l-320 -570h-90v540zM216 790l20 15q36 -45 110 -45t110 45l20 -15q-40 -90 -130 -90t-130 90z" />
    <glyph glyph-name="uni041A" unicode="&#x41a;" horiz-adv-x="677" 
d="M523 15.5q-51 25.5 -117 94.5l-210 220v-330h-90v540q0 51 -14 75.5t-56 24.5h-20v20h90q37 0 55.5 -9.5t26.5 -34.5t8 -76v-195l210 210l20 21q28 29 47 45.5t45 27.5t58 11h50v-25q-42 0 -73 -14.5t-72 -55.5l-195 -195l230 -240q44 -45 89 -75.5t81 -35.5v-19
q-30 -10 -65 -10q-47 0 -98 25.5z" />
    <glyph glyph-name="uni041B" unicode="&#x41b;" horiz-adv-x="660" 
d="M-6 -1v25q50 2 85.5 43t57.5 153.5t22 319.5q0 51 -14 75.5t-56 24.5h-10v20h495v-660h-90v620h-250v-80q0 -216 -25.5 -337.5t-67 -167t-97.5 -45.5q-23 0 -50 9z" />
    <glyph glyph-name="uni041C" unicode="&#x41c;" horiz-adv-x="855" 
d="M729 -23q-40 22 -56.5 68.5t-16.5 124.5v385l-250 -555h-20l-260 565v-565h-40v660h95l240 -520l235 520h90v-490q0 -93 23.5 -144t71.5 -51v-20q-72 0 -112 22z" />
    <glyph glyph-name="uni041D" unicode="&#x41d;" horiz-adv-x="693" 
d="M106 540q0 51 -14 75.5t-56 24.5h-20v20h90q37 0 55.5 -9.5t26.5 -34.5t8 -76v-180h300v300h90v-540q0 -51 14 -75.5t56 -24.5h20v-20h-90q-37 0 -55.5 9.5t-26.5 34.5t-8 76v200h-300v-320h-90v540z" />
    <glyph glyph-name="uni041E" unicode="&#x41e;" horiz-adv-x="712" 
d="M192.5 26q-70.5 46 -108.5 126t-38 178t38 178t108.5 126t163.5 46t163.5 -46t108.5 -126t38 -178t-38 -178t-108.5 -126t-163.5 -46t-163.5 46zM468.5 58q47.5 38 72.5 107.5t25 164.5t-25 164.5t-72.5 107.5t-112.5 38t-112.5 -38t-72.5 -107.5t-25 -164.5t25 -164.5
t72.5 -107.5t112.5 -38t112.5 38z" />
    <glyph glyph-name="uni041F" unicode="&#x41f;" horiz-adv-x="672" 
d="M106 540q0 51 -14 75.5t-56 24.5h-20v20h570v-660h-90v620h-300v-620h-90v540z" />
    <glyph glyph-name="uni0420" unicode="&#x420;" horiz-adv-x="552" 
d="M106 540q0 51 -14 75.5t-56 24.5h-20v20h260q96 0 173 -41t77 -159q0 -78 -40 -120t-89.5 -56t-90.5 -14h-110v-270h-90v540zM339 321.5q36 16.5 61.5 52.5t25.5 91t-25.5 91t-61.5 52.5t-68 16.5q-35 0 -75 -10v-300q40 -10 75 -10q32 0 68 16.5z" />
    <glyph glyph-name="uni0421" unicode="&#x421;" horiz-adv-x="665" 
d="M190.5 25q-70.5 45 -108.5 122.5t-38 172.5q0 98 41.5 181t113 131t155.5 48q80 0 140.5 -22.5t89.5 -57.5q17 -21 21 -55.5t4 -94.5h-20q-19 97 -70 143.5t-135 46.5q-108 0 -174 -76t-66 -244q0 -79 25.5 -147t79.5 -110.5t135 -42.5q73 0 127.5 35t97.5 105l20 -15
q-46 -90 -113.5 -127.5t-161.5 -37.5q-93 0 -163.5 45z" />
    <glyph glyph-name="uni0422" unicode="&#x422;" horiz-adv-x="583" 
d="M256 620h-90q-125 0 -125 -115h-20v75q0 80 85 80h465v-40h-225v-620h-90v620z" />
    <glyph glyph-name="uni0423" unicode="&#x423;" horiz-adv-x="607" 
d="M132 20q52 0 93 17t57 58l10 25l-185 410q-15 36 -29 57t-39 36t-67 17v20h120q43 0 70.5 -29.5t49.5 -80.5l135 -300l180 410h60l-246 -565q-45 -105 -159 -105h-50v30z" />
    <glyph glyph-name="uni0424" unicode="&#x424;" horiz-adv-x="780" 
d="M345 35q-154 0 -232 74.5t-78 205.5t78 205.5t232 74.5v5q0 38 -16 54t-54 16h-20v20h90q52 0 71 -19t19 -71v-5q154 0 232 -74.5t78 -205.5t-78 -205.5t-232 -74.5v-65h-90v65zM345 555q-112 0 -161 -65.5t-49 -174.5t49 -174.5t161 -65.5v480zM596 140.5
q49 65.5 49 174.5t-49 174.5t-161 65.5v-480q112 0 161 65.5z" />
    <glyph glyph-name="uni0425" unicode="&#x425;" horiz-adv-x="667" 
d="M291 325l-140 205q-24 35 -42 55.5t-47 36.5t-71 18v20h120q44 0 74 -28.5t66 -81.5l100 -150l200 260h50l-225 -295l160 -235q31 -46 66.5 -76.5t78.5 -33.5v-20h-105q-43 0 -76 30.5t-64 79.5l-120 180l-225 -290h-50z" />
    <glyph glyph-name="uni0426" unicode="&#x426;" horiz-adv-x="695" 
d="M590 -40q-29 40 -84 40h-400v540q0 51 -14 75.5t-56 24.5h-20v20h90q37 0 55.5 -9.5t26.5 -34.5t8 -76v-500h300v620h90v-620h55q15 0 25 -10t10 -25v-185h-45q-12 100 -41 140z" />
    <glyph glyph-name="uni0427" unicode="&#x427;" horiz-adv-x="640" 
d="M464 270q-23 -11 -60.5 -15.5t-74.5 -4.5q-76 0 -129 16t-84.5 62.5t-31.5 131.5v80q0 51 -14 75.5t-56 24.5h-10v20h90q37 0 55.5 -9.5t26.5 -34.5t8 -76v-90q0 -64 16.5 -99t48.5 -48t85 -13q34 0 70 5t60 15v350h90v-660h-90v270z" />
    <glyph glyph-name="uni0428" unicode="&#x428;" horiz-adv-x="932" 
d="M106 540q0 51 -14 75.5t-56 24.5h-20v20h90q37 0 55.5 -9.5t26.5 -34.5t8 -76v-500h235v620h90v-620h235v620h90v-660h-740v540z" />
    <glyph glyph-name="uni0429" unicode="&#x429;" horiz-adv-x="955" 
d="M850 -40q-29 40 -84 40h-660v540q0 51 -14 75.5t-56 24.5h-20v20h90q37 0 55.5 -9.5t26.5 -34.5t8 -76v-500h235v620h90v-620h235v620h90v-620h55q15 0 25 -10t10 -25v-185h-45q-12 100 -41 140z" />
    <glyph glyph-name="uni042A" unicode="&#x42a;" horiz-adv-x="704" 
d="M214 620h-30q-44 0 -70 -13.5t-39 -46t-16 -90.5h-30v155q0 15 10 25t25 10h240v-280h110q110 0 187.5 -41t77.5 -149t-77.5 -149t-187.5 -41h-200v620zM531.5 74q47.5 39 47.5 116t-47.5 116t-132.5 39q-47 0 -95 -14v-282q48 -14 95 -14q85 0 132.5 39z" />
    <glyph glyph-name="uni042B" unicode="&#x42b;" horiz-adv-x="832" 
d="M106 540q0 51 -14 75.5t-56 24.5h-20v20h90q37 0 55.5 -9.5t26.5 -34.5t8 -76v-160h110q99 0 174.5 -41.5t75.5 -148.5t-75.5 -148.5t-174.5 -41.5h-200v540zM670.5 9.5q-18.5 9.5 -26.5 34.5t-8 76v540h90v-540q0 -51 14 -75.5t56 -24.5h20v-20h-90q-37 0 -55.5 9.5z
M410.5 74.5q45.5 39.5 45.5 115.5t-45.5 115.5t-119.5 39.5q-47 0 -95 -14v-282q48 -14 95 -14q74 0 119.5 39.5z" />
    <glyph glyph-name="uni042C" unicode="&#x42c;" horiz-adv-x="596" 
d="M106 540q0 51 -14 75.5t-56 24.5h-20v20h90q37 0 55.5 -9.5t26.5 -34.5t8 -76v-160h110q110 0 187.5 -41t77.5 -149t-77.5 -149t-187.5 -41h-200v540zM423.5 74q47.5 39 47.5 116t-47.5 116t-132.5 39q-47 0 -95 -14v-282q48 -14 95 -14q85 0 132.5 39z" />
    <glyph glyph-name="uni042D" unicode="&#x42d;" horiz-adv-x="665" 
d="M148.5 17.5q-67.5 37.5 -113.5 127.5l20 15q43 -70 97.5 -105t127.5 -35q78 0 131.5 40.5t79.5 106.5t29 143h-331v40h331q-8 152 -73 221t-167 69q-84 0 -135 -46.5t-70 -143.5h-20q0 60 4 94.5t21 55.5q29 35 89.5 57.5t140.5 22.5q84 0 155.5 -48t113 -131t41.5 -181
q0 -95 -38 -172.5t-108.5 -122.5t-163.5 -45q-94 0 -161.5 37.5z" />
    <glyph glyph-name="uni042E" unicode="&#x42e;" horiz-adv-x="873" 
d="M405 22.5q-63 42.5 -100 120t-39 177.5h-70v-320h-90v540q0 51 -14 75.5t-56 24.5h-20v20h90q37 0 55.5 -9.5t26.5 -34.5t8 -76v-180h71q6 96 43.5 168.5t98.5 112t137 39.5q79 0 143 -43.5t100.5 -123.5t36.5 -183t-36.5 -183t-100.5 -123.5t-143 -43.5q-78 0 -141 42.5
zM638 56.5q41 36.5 64.5 106.5t23.5 167t-23.5 167t-64.5 106.5t-92 36.5t-92 -36.5t-64.5 -106.5t-23.5 -167t23.5 -167t64.5 -106.5t92 -36.5t92 36.5z" />
    <glyph glyph-name="uni042F" unicode="&#x42f;" horiz-adv-x="608" 
d="M14 1v19q36 4 62 24t48 56l105 180q-61 15 -103 57t-42 123q0 118 77 159t173 41h250v-20h-10q-42 0 -56 -24.5t-14 -75.5v-540h-90v270h-97l-105 -190q-28 -51 -60 -70.5t-78 -19.5q-27 0 -60 11zM414 315v300q-40 10 -75 10q-32 0 -68 -16.5t-61.5 -52.5t-25.5 -91
t25.5 -91t61.5 -52.5t68 -16.5q35 0 75 10z" />
    <glyph glyph-name="uni0430" unicode="&#x430;" horiz-adv-x="481" 
d="M119 3.5q-33 13.5 -56.5 44.5t-23.5 82q0 76 70.5 108t184.5 32h30q0 98 -27 134t-78 36q-45 0 -72 -19t-38 -66h-45q0 34 4 53.5t21 36.5q18 18 59.5 26.5t90.5 8.5q81 0 128 -43.5t47 -166.5v-270h-50l-35 45h-5q-18 -23 -53 -39t-87 -16q-32 0 -65 13.5zM284 51
q22 16 40 44v135h-30q-74 0 -117 -27.5t-43 -72.5q0 -46 27.5 -70.5t67.5 -24.5q33 0 55 16z" />
    <glyph glyph-name="uni0431" unicode="&#x431;" horiz-adv-x="528" 
d="M117 49q-57 59 -57 181v40q0 122 14 189t45 97.5t86 43.5l150 35q38 9 55 18.5t20 26.5h20v-65q0 -37 -30 -45l-175 -40q-46 -12 -74 -34t-44.5 -68.5t-21.5 -127.5h5q19 74 61.5 107t118.5 33q52 0 95 -24.5t69 -75.5t26 -125q0 -112 -57.5 -168.5t-152.5 -56.5
q-96 0 -153 59zM353 72q32 42 32 143q0 98 -32.5 141.5t-82.5 43.5t-82.5 -43.5t-32.5 -141.5q0 -101 32 -143t83 -42t83 42z" />
    <glyph glyph-name="uni0432" unicode="&#x432;" horiz-adv-x="501" 
d="M82 350q0 51 -14 75.5t-56 24.5h-10v20h245q84 0 137 -28t53 -92q0 -43 -24 -68.5t-76 -36.5q58 -11 89 -40.5t31 -74.5q0 -71 -55.5 -100.5t-154.5 -29.5h-165v350zM227 265q54 0 84.5 22t30.5 63t-29 63t-76 22q-15 0 -34 -3t-31 -7v-160h55zM362 130q0 95 -135 95h-55
v-180q12 -4 31 -7t34 -3q125 0 125 95z" />
    <glyph glyph-name="uni0433" unicode="&#x433;" horiz-adv-x="435" 
d="M82 350q0 51 -14 75.5t-56 24.5h-10v20h330q75 0 75 -80v-60h-20q0 47 -29 73.5t-76 26.5h-110v-430h-90v350z" />
    <glyph glyph-name="uni0434" unicode="&#x434;" horiz-adv-x="570" 
d="M16 5q0 15 10 25t25 10h30q31 69 45.5 151.5t14.5 158.5q0 51 -14 75.5t-56 24.5v20h400v-430h40q15 0 25 -10t10 -25v-160h-40q-8 84 -32 119.5t-73 35.5h-240q-49 0 -73 -35.5t-32 -119.5h-40v160zM381 40v390h-175q0 -131 -13 -223.5t-42 -166.5h230z" />
    <glyph glyph-name="uni0435" unicode="&#x435;" horiz-adv-x="488" 
d="M140 22.5q-47 32.5 -71 88t-24 124.5q0 68 24 124t69.5 88.5t106.5 32.5q101 0 150.5 -56.5t49.5 -163.5l-2 -40h-303q0 -84 36 -137t99 -53q47 0 79.5 20t60.5 60l20 -15q-33 -55 -77 -80t-103 -25q-68 0 -115 32.5zM350 260q0 88 -26 134t-79 46q-30 0 -54 -23.5
t-37.5 -64.5t-13.5 -92h210z" />
    <glyph glyph-name="uni0436" unicode="&#x436;" horiz-adv-x="686" 
d="M8 0v19q34 5 61.5 24.5t53.5 56.5l105 145l-95 155q-14 22 -39 33.5t-56 11.5v25h25q90 0 130 -65l105 -175v240h90v-240l105 175q40 65 130 65h25v-25q-31 0 -56 -11.5t-39 -33.5l-95 -155l105 -145q26 -37 53.5 -56.5t61.5 -24.5v-19q-22 -10 -50 -10q-78 0 -135 80
l-105 145v-215h-90v215l-105 -145q-57 -80 -135 -80q-28 0 -50 10z" />
    <glyph glyph-name="uni0437" unicode="&#x437;" horiz-adv-x="455" 
d="M106.5 11q-41.5 21 -70.5 59l20 15q25 -25 55.5 -40t79.5 -15q125 0 125 95t-140 95h-45v40h45q61 0 93 22.5t32 67.5q0 43 -28 66.5t-72 23.5q-55 0 -91 -28.5t-39 -76.5h-20q0 49 4 71t21 39q35 35 140 35q77 0 128.5 -30.5t51.5 -99.5q0 -43 -26.5 -70.5t-73.5 -39.5
q55 -11 85 -41t30 -74q0 -135 -200 -135q-63 0 -104.5 21z" />
    <glyph glyph-name="uni0438" unicode="&#x438;" horiz-adv-x="548" 
d="M86 350q0 51 -14 75.5t-56 24.5h-15v20h85q37 0 55.5 -9.5t26.5 -34.5t8 -76v-260l210 380h90v-470h-90v380l-210 -380h-90v350z" />
    <glyph glyph-name="uni0439" unicode="&#x439;" horiz-adv-x="548" 
d="M86 350q0 51 -14 75.5t-56 24.5h-15v20h85q37 0 55.5 -9.5t26.5 -34.5t8 -76v-260l210 380h90v-470h-90v380l-210 -380h-90v350zM151 601l20 15q20 -20 45 -30t65 -10t65 10t45 30l20 -15q-44 -80 -130 -80t-130 80z" />
    <glyph glyph-name="uni043A" unicode="&#x43a;" horiz-adv-x="497" 
d="M294 70l-115 145v-215h-90v350q0 51 -14 75.5t-56 24.5h-20v20h90q37 0 55.5 -9.5t26.5 -34.5t8 -76v-120l125 175q23 32 53.5 48.5t76.5 16.5h25v-25q-58 0 -90 -45l-110 -155l115 -145q28 -36 55.5 -56t59.5 -25v-19q-22 -10 -50 -10q-81 0 -145 80z" />
    <glyph glyph-name="uni043B" unicode="&#x43b;" horiz-adv-x="546" 
d="M33.5 -7q-16.5 3 -24.5 6v25q58 0 94 69t36 257q0 51 -14.5 75.5t-56.5 24.5v20h406v-470h-90v430h-176v-80q0 -205 -41.5 -282.5t-108.5 -77.5q-8 0 -24.5 3z" />
    <glyph glyph-name="uni043C" unicode="&#x43c;" horiz-adv-x="649" 
d="M505 23.5q-38 43.5 -38 126.5v215l-165 -365h-20l-170 375v-375h-40v470h95l150 -330l150 330h90v-320q0 -59 21.5 -104.5t53.5 -45.5v-20q-89 0 -127 43.5z" />
    <glyph glyph-name="uni043D" unicode="&#x43d;" horiz-adv-x="553" 
d="M86 350q0 51 -14 75.5t-56 24.5h-15v20h85q37 0 55.5 -9.5t26.5 -34.5t8 -76v-95h200v215h90v-350q0 -51 14 -75.5t56 -24.5h15v-20h-85q-37 0 -55.5 9.5t-26.5 34.5t-8 76v95h-200v-215h-90v350z" />
    <glyph glyph-name="uni043E" unicode="&#x43e;" 
d="M147 22.5q-50 32.5 -76 88.5t-26 124t26 124t76 88.5t118 32.5t118 -32.5t76 -88.5t26 -124t-26 -124t-76 -88.5t-118 -32.5t-118 32.5zM330.5 57q28.5 27 44 74t15.5 104t-15.5 104t-44 74t-65.5 27t-65.5 -27t-44 -74t-15.5 -104t15.5 -104t44 -74t65.5 -27t65.5 27z
" />
    <glyph glyph-name="uni043F" unicode="&#x43f;" horiz-adv-x="534" 
d="M82 350q0 51 -14 75.5t-56 24.5h-10v20h460v-470h-90v430h-200v-430h-90v350z" />
    <glyph glyph-name="uni0440" unicode="&#x440;" horiz-adv-x="538" 
d="M87 350q0 51 -14 75.5t-56 24.5h-20v20h90q38 0 57.5 -10.5t27.5 -34.5h5q18 23 51 39t84 16q86 0 133 -69.5t47 -175.5q0 -107 -48.5 -176t-141.5 -69q-38 0 -67 8t-58 22v-210h-90v540zM366.5 86q30.5 56 30.5 149q0 92 -29 148.5t-86 56.5q-67 0 -105 -60v-320
q30 -14 52 -22t43 -8q64 0 94.5 56z" />
    <glyph glyph-name="uni0441" unicode="&#x441;" horiz-adv-x="483" 
d="M143.5 22.5q-49.5 32.5 -74 88t-24.5 124.5t24.5 124.5t74 88t121.5 32.5q110 0 145 -35q17 -17 21 -41.5t4 -88.5h-20q-4 62 -39 93.5t-91 31.5q-72 0 -108.5 -57t-36.5 -148t36.5 -148t108.5 -57q51 0 84 19.5t61 60.5l20 -15q-33 -56 -78 -80.5t-107 -24.5
q-72 0 -121.5 32.5z" />
    <glyph glyph-name="uni0442" unicode="&#x442;" horiz-adv-x="474" 
d="M204 430h-50q-47 0 -76 -26.5t-29 -73.5h-20v60q0 80 75 80h355v-40h-165v-430h-90v430z" />
    <glyph glyph-name="uni0443" unicode="&#x443;" horiz-adv-x="514" 
d="M105 -170q49 0 80.5 22.5t54.5 82.5l20 55l-160 390q-28 72 -110 80v20h85q87 0 120 -80l114 -277l126 347h50l-195 -535q-29 -79 -64 -107t-91 -28h-30v30z" />
    <glyph glyph-name="uni0444" unicode="&#x444;" horiz-adv-x="662" 
d="M286 -10q-116 4 -178 71.5t-62 173.5t62 173.5t178 71.5v60q0 51 -14 75.5t-56 24.5h-15v20h85q37 0 55.5 -9.5t26.5 -34.5t8 -76v-60q116 -4 178 -71.5t62 -173.5t-62 -173.5t-178 -71.5v-180h-90v180zM287 445q-74 -8 -110 -62.5t-36 -147.5t36 -147.5t110 -62.5v420z
M485 87.5q36 54.5 36 147.5t-36 147.5t-110 62.5v-420q74 8 110 62.5z" />
    <glyph glyph-name="uni0445" unicode="&#x445;" horiz-adv-x="488" 
d="M198 225l-87 145q-42 73 -103 80v20h85q33 0 62 -21t51 -59l62 -105l130 185h50l-160 -225l87 -145q41 -72 108 -80v-20h-90q-33 0 -62 21t-51 59l-62 105l-130 -185h-50z" />
    <glyph glyph-name="uni0446" unicode="&#x446;" horiz-adv-x="565" 
d="M469 -35.5q-24 35.5 -73 35.5h-310v350q0 51 -14 75.5t-56 24.5h-15v20h85q37 0 55.5 -9.5t26.5 -34.5t8 -76v-310h200v430h90v-430h40q15 0 25 -10t10 -25v-160h-40q-8 84 -32 119.5z" />
    <glyph glyph-name="uni0447" unicode="&#x447;" horiz-adv-x="533" 
d="M371 193q-45 -18 -100 -18q-77 0 -128.5 31.5t-51.5 113.5v30q0 51 -14 75.5t-56 24.5h-10v20h85q37 0 55.5 -9.5t26.5 -34.5t8 -76v-40q0 -49 26 -72t64 -23q50 0 95 18v237h90v-470h-90v193z" />
    <glyph glyph-name="uni0448" unicode="&#x448;" horiz-adv-x="738" 
d="M86 350q0 51 -14 75.5t-56 24.5h-15v20h85q37 0 55.5 -9.5t26.5 -34.5t8 -76v-310h155v430h90v-430h155v430h90v-470h-580v350z" />
    <glyph glyph-name="uni0449" unicode="&#x449;" horiz-adv-x="765" 
d="M669 -35.5q-24 35.5 -73 35.5h-510v350q0 51 -14 75.5t-56 24.5h-15v20h85q37 0 55.5 -9.5t26.5 -34.5t8 -76v-310h155v430h90v-430h155v430h90v-430h40q15 0 25 -10t10 -25v-160h-40q-8 84 -32 119.5z" />
    <glyph glyph-name="uni044A" unicode="&#x44a;" horiz-adv-x="584" 
d="M185 430h-10q-54 0 -82.5 -31.5t-32.5 -98.5h-25v135q0 15 10 25t25 10h205v-190h75q95 0 150 -32t55 -108t-55 -108t-150 -32h-165v430zM429.5 60q30.5 25 30.5 80t-30.5 80t-89.5 25q-15 0 -34 -3t-31 -7v-190q12 -4 31 -7t34 -3q59 0 89.5 25z" />
    <glyph glyph-name="uni044B" unicode="&#x44b;" horiz-adv-x="688" 
d="M86 350q0 51 -14 75.5t-56 24.5h-15v20h85q37 0 55.5 -9.5t26.5 -34.5t8 -76v-70h75q195 0 195 -140t-195 -140h-165v350zM545.5 9.5q-18.5 9.5 -26.5 34.5t-8 76v350h90v-350q0 -51 14 -75.5t56 -24.5h15v-20h-85q-37 0 -55.5 9.5zM322 60q29 25 29 80t-29 80t-81 25
q-15 0 -34 -3t-31 -7v-190q12 -4 31 -7t34 -3q52 0 81 25z" />
    <glyph glyph-name="uni044C" unicode="&#x44c;" horiz-adv-x="481" 
d="M86 350q0 51 -14 75.5t-56 24.5h-15v20h85q37 0 55.5 -9.5t26.5 -34.5t8 -76v-70h75q95 0 150 -32t55 -108t-55 -108t-150 -32h-165v350zM330.5 60q30.5 25 30.5 80t-30.5 80t-89.5 25q-15 0 -34 -3t-31 -7v-190q12 -4 31 -7t34 -3q59 0 89.5 25z" />
    <glyph glyph-name="uni044D" unicode="&#x44d;" horiz-adv-x="489" 
d="M117 14.5q-45 24.5 -78 80.5l20 15q28 -41 61 -60.5t84 -19.5q67 0 104 49.5t41 130.5h-210v40h210q-4 84 -40.5 137t-104.5 53q-56 0 -91 -31.5t-39 -93.5h-20q0 64 4 88.5t21 41.5q35 35 145 35q72 0 121.5 -32.5t74 -88t24.5 -124.5t-24.5 -124.5t-74 -88
t-121.5 -32.5q-62 0 -107 24.5z" />
    <glyph glyph-name="uni044E" unicode="&#x44e;" horiz-adv-x="691" 
d="M336.5 18q-45.5 28 -72 79t-28.5 118h-60v-215h-90v350q0 51 -14 75.5t-56 24.5h-15v20h85q37 0 55.5 -9.5t26.5 -34.5t8 -76v-95h60q2 67 28.5 118t72 79t104.5 28q62 0 108.5 -31t71.5 -86.5t25 -127.5t-25 -127.5t-71.5 -86.5t-108.5 -31q-59 0 -104.5 28zM521 83
q30 53 30 152t-30 152t-80 53t-80 -53t-30 -152t30 -152t80 -53t80 53z" />
    <glyph glyph-name="uni044F" unicode="&#x44f;" horiz-adv-x="510" 
d="M17 0v20q31 3 52 24t43 56l60 105q-48 8 -81.5 42.5t-33.5 87.5q0 135 200 135h235v-20q-42 0 -56 -24.5t-14 -75.5v-350h-90v200h-78l-60 -120q-24 -47 -52.5 -68.5t-69.5 -21.5q-25 0 -55 10zM301 238q19 3 31 7v180q-12 4 -31 7t-34 3q-115 0 -115 -100t115 -100
q15 0 34 3z" />
    <glyph glyph-name="uni0450" unicode="&#x450;" horiz-adv-x="488" 
d="M140 22.5q-47 32.5 -71 88t-24 124.5q0 68 24 124t69.5 88.5t106.5 32.5q101 0 150.5 -56.5t49.5 -163.5l-2 -40h-303q0 -84 36 -137t99 -53q47 0 79.5 20t60.5 60l20 -15q-33 -55 -77 -80t-103 -25q-68 0 -115 32.5zM350 260q0 88 -26 134t-79 46q-30 0 -54 -23.5
t-37.5 -64.5t-13.5 -92h210zM234 515l-95 130h95l40 -130h-40z" />
    <glyph glyph-name="uni0451" unicode="&#x451;" horiz-adv-x="488" 
d="M140 22.5q-47 32.5 -71 88t-24 124.5q0 68 24 124t69.5 88.5t106.5 32.5q101 0 150.5 -56.5t49.5 -163.5l-2 -40h-303q0 -84 36 -137t99 -53q47 0 79.5 20t60.5 60l20 -15q-33 -55 -77 -80t-103 -25q-68 0 -115 32.5zM350 260q0 88 -26 134t-79 46q-30 0 -54 -23.5
t-37.5 -64.5t-13.5 -92h210zM127 538q-13 13 -13 32t13 32t32 13t32 -13t13 -32t-13 -32t-32 -13t-32 13zM297 538q-13 13 -13 32t13 32t32 13t32 -13t13 -32t-13 -32t-32 -13t-32 13z" />
    <glyph glyph-name="uni0452" unicode="&#x452;" 
d="M277 -120q48 0 71.5 51t23.5 144v175q0 70 -31.5 102.5t-78.5 32.5q-53 0 -100 -53v-332h-90v500h-70v40h70v60l50 60h40v-120h170v-40h-170v-120q21 21 54.5 35.5t75.5 14.5q75 0 122.5 -40t47.5 -140v-175q0 -78 -16.5 -124.5t-56.5 -68.5t-112 -22v20z" />
    <glyph glyph-name="uni0453" unicode="&#x453;" horiz-adv-x="435" 
d="M82 350q0 51 -14 75.5t-56 24.5h-10v20h330q75 0 75 -80v-60h-20q0 47 -29 73.5t-76 26.5h-110v-430h-90v350zM220 515l40 130h95l-95 -130h-40z" />
    <glyph glyph-name="uni0454" unicode="&#x454;" horiz-adv-x="489" 
d="M143.5 22.5q-49.5 32.5 -74 88t-24.5 124.5t24.5 124.5t74 88t121.5 32.5q110 0 145 -35q17 -17 21 -41.5t4 -88.5h-20q-4 62 -39 93.5t-91 31.5q-68 0 -104.5 -53t-40.5 -137h210v-40h-210q4 -81 41 -130.5t104 -49.5q51 0 84 19.5t61 60.5l20 -15q-33 -56 -78 -80.5
t-107 -24.5q-72 0 -121.5 32.5z" />
    <glyph glyph-name="uni0455" unicode="&#x455;" horiz-adv-x="446" 
d="M74 30q-17 17 -21 38.5t-4 66.5h20q9 -50 43.5 -77.5t96.5 -27.5q55 0 82.5 19t27.5 51q0 29 -21.5 50t-68.5 40l-60 25q-60 24 -90 56t-30 79q0 61 46 95.5t119 34.5q110 0 150 -40q17 -17 21 -38t4 -67h-20q-8 50 -42 77.5t-93 27.5q-47 0 -73.5 -19.5t-26.5 -50.5
q0 -52 80 -85l60 -25q68 -28 99 -59.5t31 -80.5q0 -61 -49 -95.5t-126 -34.5q-115 0 -155 40z" />
    <glyph glyph-name="uni0456" unicode="&#x456;" horiz-adv-x="246" 
d="M85.5 549q-16.5 19 -16.5 45q0 21 12.5 33t33.5 12q23 0 39.5 -19t16.5 -45q0 -21 -12.5 -33t-33.5 -12q-23 0 -39.5 19zM87 350q0 51 -14 75.5t-56 24.5h-20v20h90q37 0 55.5 -9.5t26.5 -34.5t8 -76v-350h-90v350z" />
    <glyph glyph-name="uni0457" unicode="&#x457;" horiz-adv-x="246" 
d="M12.5 559q-16.5 19 -16.5 45q0 21 12.5 33t33.5 12q23 0 39.5 -19t16.5 -45q0 -21 -12.5 -33t-33.5 -12q-23 0 -39.5 19zM166.5 559q-16.5 19 -16.5 45q0 21 12.5 33t33.5 12q23 0 39.5 -19t16.5 -45q0 -21 -12.5 -33t-33.5 -12q-23 0 -39.5 19zM87 350q0 51 -14 75.5
t-56 24.5h-20v20h90q37 0 55.5 -9.5t26.5 -34.5t8 -76v-350h-90v350z" />
    <glyph glyph-name="uni0458" unicode="&#x458;" horiz-adv-x="246" 
d="M85.5 549q-16.5 19 -16.5 45q0 21 12.5 33t33.5 12q23 0 39.5 -19t16.5 -45q0 -21 -12.5 -33t-33.5 -12q-23 0 -39.5 19zM-8 -170q48 0 71.5 51t23.5 144v325q0 51 -14 75.5t-56 24.5h-20v20h90q37 0 55.5 -9.5t26.5 -34.5t8 -76v-325q0 -78 -16.5 -124.5t-56.5 -68.5
t-112 -22v20z" />
    <glyph glyph-name="uni0459" unicode="&#x459;" horiz-adv-x="772" 
d="M33.5 -7q-16.5 3 -24.5 6v25q58 0 94 69t36 257q0 51 -14.5 75.5t-56.5 24.5v20h395v-190h75q95 0 150 -32t55 -108t-55 -108t-150 -32h-165v430h-165v-80q0 -205 -41.5 -282.5t-108.5 -77.5q-8 0 -24.5 3zM617.5 60q30.5 25 30.5 80t-30.5 80t-89.5 25q-15 0 -34 -3
t-31 -7v-190q12 -4 31 -7t34 -3q59 0 89.5 25z" />
    <glyph glyph-name="uni045A" unicode="&#x45a;" horiz-adv-x="763" 
d="M86 350q0 51 -14 75.5t-56 24.5h-15v20h85q37 0 55.5 -9.5t26.5 -34.5t8 -76v-90h190v210h90v-210h75q205 0 205 -130q0 -71 -55 -100.5t-150 -29.5h-165v220h-190v-220h-90v350zM610 58.5q31 23.5 31 71.5t-31 71.5t-89 23.5q-15 0 -34 -3t-31 -7v-170q12 -4 31 -7
t34 -3q58 0 89 23.5z" />
    <glyph glyph-name="uni045B" unicode="&#x45b;" 
d="M72 500h-70v40h70v60l50 60h40v-120h120v-40h-120v-120q21 21 54.5 35.5t75.5 14.5q75 0 122.5 -40t47.5 -140v-250h-90v250q0 70 -31.5 102.5t-78.5 32.5q-53 0 -100 -53v-332h-90v500z" />
    <glyph glyph-name="uni045C" unicode="&#x45c;" horiz-adv-x="497" 
d="M294 70l-115 145v-215h-90v350q0 51 -14 75.5t-56 24.5h-20v20h90q37 0 55.5 -9.5t26.5 -34.5t8 -76v-120l125 175q23 32 53.5 48.5t76.5 16.5h25v-25q-58 0 -90 -45l-110 -155l115 -145q28 -36 55.5 -56t59.5 -25v-19q-22 -10 -50 -10q-81 0 -145 80zM221 515l40 130h95
l-95 -130h-40z" />
    <glyph glyph-name="uni045D" unicode="&#x45d;" horiz-adv-x="548" 
d="M86 350q0 51 -14 75.5t-56 24.5h-15v20h85q37 0 55.5 -9.5t26.5 -34.5t8 -76v-260l210 380h90v-470h-90v380l-210 -380h-90v350zM264 515l-95 130h95l40 -130h-40z" />
    <glyph glyph-name="uni045E" unicode="&#x45e;" horiz-adv-x="514" 
d="M105 -170q49 0 80.5 22.5t54.5 82.5l20 55l-160 390q-28 72 -110 80v20h85q87 0 120 -80l114 -277l126 347h50l-195 -535q-29 -79 -64 -107t-91 -28h-30v30zM170 592l20 15q20 -20 45 -30t65 -10t65 10t45 30l20 -15q-44 -80 -130 -80t-130 80z" />
    <glyph glyph-name="uni045F" unicode="&#x45f;" horiz-adv-x="538" 
d="M241 0h-155v350q0 51 -14 75.5t-56 24.5h-15v20h85q37 0 55.5 -9.5t26.5 -34.5t8 -76v-310h200v430h90v-470h-155l-15 -150h-40z" />
    <glyph glyph-name="uni0462" unicode="&#x462;" horiz-adv-x="666" 
d="M563.5 339q77.5 -41 77.5 -149t-77.5 -149t-187.5 -41h-200v520h-10q-125 0 -125 -115h-20v75q0 80 85 80h70q-2 40 -17.5 60t-52.5 20h-20v20h90q34 0 52.5 -8t27 -29t10.5 -63h225v-40h-225v-140h110q110 0 187.5 -41zM493.5 74q47.5 39 47.5 116t-47.5 116t-132.5 39
q-47 0 -95 -14v-282q48 -14 95 -14q85 0 132.5 39z" />
    <glyph glyph-name="uni0463" unicode="&#x463;" horiz-adv-x="569" 
d="M489 248q55 -32 55 -108t-55 -108t-150 -32h-165v430h-20q-47 0 -76 -26.5t-29 -73.5h-20v60q0 80 75 80h70v70q0 51 -14 75.5t-56 24.5h-15v20h85q37 0 55.5 -9.5t26.5 -34.5t8 -76v-70h175v-40h-175v-150h75q95 0 150 -32zM418.5 60q30.5 25 30.5 80t-30.5 80t-89.5 25
q-15 0 -34 -3t-31 -7v-190q12 -4 31 -7t34 -3q59 0 89.5 25z" />
    <glyph glyph-name="uni046A" unicode="&#x46a;" horiz-adv-x="949" 
d="M-9 0v19q35 4 80.5 35t79.5 76l134 170q24 29 48.5 42t66.5 16l-174 206q-38 38 -69.5 54.5t-65.5 16.5v25h737v-25q-33 0 -62 -16t-72 -54l-163 -205q84 0 121 -44l146 -186q37 -45 81.5 -76t78.5 -35v-19q-30 -10 -65 -10q-45 0 -98.5 25.5t-106.5 94.5l-170 220v-330
h-87v330l-170 -220q-53 -69 -106.5 -94.5t-98.5 -25.5q-35 0 -65 10zM469 350l214 270h-443z" />
    <glyph glyph-name="uni046B" unicode="&#x46b;" horiz-adv-x="687" 
d="M9 0l-1 19q34 5 62 24.5t54 56.5l71 100q22 30 38.5 42t45.5 13l-125 145q-39 45 -96 45l1 25h570l-1 -25q-57 0 -94 -45l-124 -145h7q19 0 39.5 -16t45.5 -54l50 -75q25 -37 59 -61.5t67 -29.5l1 -19q-24 -10 -51 -10q-78 0 -135 80l-104 145v-215h-90v215l-106 -145
q-57 -80 -135 -80q-29 0 -49 10zM345 251l153 179h-303z" />
    <glyph glyph-name="uni0472" unicode="&#x472;" horiz-adv-x="712" 
d="M519.5 634q70.5 -46 108.5 -126t38 -178t-38 -178t-108.5 -126t-163.5 -46t-163.5 46t-108.5 126t-38 178t38 178t108.5 126t163.5 46t163.5 -46zM208.5 565q-55.5 -75 -61.5 -205h418q-6 130 -61.5 205t-147.5 75t-147.5 -75zM508 100.5q56 80.5 58 219.5h-420
q2 -139 58 -219.5t152 -80.5t152 80.5z" />
    <glyph glyph-name="uni0473" unicode="&#x473;" horiz-adv-x="600" 
d="M383 447.5q50 -32.5 76 -88.5t26 -124t-26 -124t-76 -88.5t-118 -32.5t-118 32.5t-76 88.5t-26 124t26 124t76 88.5t118 32.5t118 -32.5zM330.5 57q28.5 27 44 74t15.5 104t-15.5 104t-44 74t-65.5 27q-50 0 -84 -49.5t-40 -125.5h239v-40h-240q2 -84 36.5 -139.5
t88.5 -55.5q37 0 65.5 27z" />
    <glyph glyph-name="uni0474" unicode="&#x474;" horiz-adv-x="671" 
d="M649 660v-20q-42 -4 -65 -26t-45 -79l-208 -545h-18l-232 553q-25 58 -47 79.5t-63 25.5v20q5 0 14.5 1t19.5 1q50 0 96 -25.5t78 -101.5l170 -399l144 391q28 74 59 100.5t63 26.5q14 0 34 -2z" />
    <glyph glyph-name="uni0475" unicode="&#x475;" horiz-adv-x="541" 
d="M511 450q-34 -4 -54.5 -27t-43.5 -81l-139 -351l-20 -1l-155 365q-24 56 -46 78.5t-58 24.5v20q5 0 14.5 1t19.5 1q53 0 96 -26.5t74 -98.5l86 -208l78 193q30 76 55 103.5t58 27.5q25 0 34 -1z" />
    <glyph glyph-name="uni0490" unicode="&#x490;" horiz-adv-x="535" 
d="M106 540q0 51 -14 75.5t-56 24.5h-20v20h355q125 0 125 115h20v-110q0 -19 -13 -32t-32 -13h-275v-620h-90v540z" />
    <glyph glyph-name="uni0491" unicode="&#x491;" horiz-adv-x="432" 
d="M82 350q0 51 -14 75.5t-56 24.5h-10v20h280q47 0 76 26.5t29 73.5h20v-100q0 -40 -40 -40h-195v-430h-90v350z" />
    <glyph glyph-name="uni0492" unicode="&#x492;" horiz-adv-x="537" 
d="M516 580v-75h-20q0 115 -125 115h-175v-270h123v-40h-123v-310h-90v310h-67v40h67v190q0 51 -14 75.5t-56 24.5h-20v20h415q85 0 85 -80z" />
    <glyph glyph-name="uni0493" unicode="&#x493;" horiz-adv-x="435" 
d="M407 390v-60h-20q0 47 -29 73.5t-76 26.5h-110v-175h125v-40h-125v-215h-90v215h-65v40h65v95q0 51 -14 75.5t-56 24.5h-10v20h330q75 0 75 -80z" />
    <glyph glyph-name="uni0494" unicode="&#x494;" horiz-adv-x="600" 
d="M505 375.5q60 -54.5 60 -175.5q0 -141 -68 -224t-226 -103v20q204 40 204 307q0 90 -42 137t-111 47q-58 0 -126 -31v-353h-90v540q0 51 -14 75.5t-56 24.5h-20v20h415q85 0 85 -80v-75h-20q0 115 -125 115h-175v-226q28 15 69.5 25.5t89.5 10.5q90 0 150 -54.5z" />
    <glyph glyph-name="uni0495" unicode="&#x495;" horiz-adv-x="477" 
d="M402.5 236.5q49.5 -54.5 49.5 -161.5q0 -61 -27.5 -110t-81.5 -77t-131 -28v20q48 0 82 28.5t51 73.5t17 93q0 88 -30.5 128.5t-102.5 40.5q-24 0 -57 -5v-239h-90v350q0 51 -14 75.5t-56 24.5h-10v20h330q75 0 75 -80v-60h-20q0 47 -29 73.5t-76 26.5h-110v-147
q48 8 85 8q96 0 145.5 -54.5z" />
    <glyph glyph-name="uni0496" unicode="&#x496;" horiz-adv-x="962" 
d="M972 30q10 -10 10 -25v-185h-45q-10 83 -31.5 124t-58.5 52q-86 20 -159 114l-170 220v-330h-87v330l-170 -220q-53 -69 -106.5 -94.5t-98.5 -25.5q-35 0 -65 10v19q34 4 79 35t81 76l190 240l-155 195q-31 40 -64 55t-71 15v25h50q47 0 83 -26.5t77 -78.5l170 -210v315
h87v-315l170 210q38 49 75.5 77t84.5 28h50v-25q-38 0 -71 -15t-64 -55l-155 -195l190 -240q37 -45 77 -73q16 -10 32 -13.5t40 -3.5q15 0 25 -10z" />
    <glyph glyph-name="uni0497" unicode="&#x497;" horiz-adv-x="699" 
d="M689 30q10 -10 10 -25v-160h-40q-7 66 -23 102t-45 48q-54 14 -98 75l-105 145v-215h-90v215l-105 -145q-57 -80 -135 -80q-28 0 -50 10v19q34 5 61.5 24.5t53.5 56.5l105 145l-95 155q-14 22 -39 33.5t-56 11.5v25h25q90 0 130 -65l105 -175v240h90v-240l105 175
q40 65 130 65h25v-25q-31 0 -56 -11.5t-39 -33.5l-95 -155l105 -145q15 -21 29 -35q16 -15 32 -20t40 -5q15 0 25 -10z" />
    <glyph glyph-name="uni0498" unicode="&#x498;" horiz-adv-x="570" 
d="M469.5 36q-60.5 -44 -149.5 -54v-162h-45q-4 71 -10 107.5t-17 53.5q-71 3 -124.5 32t-93.5 92l20 15q75 -100 205 -100q80 0 127.5 38.5t47.5 106.5q0 73 -48.5 111.5t-141.5 38.5h-75v40h75q71 0 120.5 38.5t49.5 106.5q0 67 -44.5 103.5t-105.5 36.5
q-72 0 -121.5 -42.5t-68.5 -117.5h-20q0 55 4 82t21 48q25 31 80.5 50.5t109.5 19.5q99 0 169.5 -39t70.5 -146q0 -51 -35 -92t-105 -63q89 -17 127 -60t38 -110q0 -90 -60.5 -134z" />
    <glyph glyph-name="uni0499" unicode="&#x499;" horiz-adv-x="455" 
d="M373 33.5q-38 -31.5 -103 -39.5v-149h-40q-6 72 -11 102.5t-16 42.5q-60 1 -99.5 22t-67.5 58l20 15q25 -25 55.5 -40t79.5 -15q125 0 125 95t-140 95h-45v40h45q61 0 93 22.5t32 67.5q0 43 -28 66.5t-72 23.5q-55 0 -91 -28.5t-39 -76.5h-20q0 49 4 71t21 39
q35 35 140 35q77 0 128.5 -30.5t51.5 -99.5q0 -43 -26.5 -70.5t-73.5 -39.5q55 -11 85 -41t30 -74q0 -60 -38 -91.5z" />
    <glyph glyph-name="uni049A" unicode="&#x49a;" horiz-adv-x="688" 
d="M698 30q10 -10 10 -25v-185h-45q-10 83 -31.5 124t-59.5 52q-76 19 -166 114l-210 220v-330h-90v540q0 51 -14 75.5t-56 24.5h-20v20h90q37 0 55.5 -9.5t26.5 -34.5t8 -76v-195l210 210l20 21q28 29 47 45.5t45 27.5t58 11h50v-25q-42 0 -73 -14.5t-72 -55.5l-195 -195
l230 -240q40 -42 75 -66q19 -15 37 -19.5t45 -4.5q15 0 25 -10z" />
    <glyph glyph-name="uni049B" unicode="&#x49b;" horiz-adv-x="512" 
d="M502 30q10 -10 10 -25v-160h-40q-7 67 -23.5 103t-47.5 47q-58 14 -107 75l-115 145v-215h-90v350q0 51 -14 75.5t-56 24.5h-20v20h90q37 0 55.5 -9.5t26.5 -34.5t8 -76v-120l125 175q23 32 53.5 48.5t76.5 16.5h25v-25q-58 0 -90 -45l-110 -155l115 -145q16 -20 23 -27
q18 -20 35.5 -26.5t44.5 -6.5q15 0 25 -10z" />
    <glyph glyph-name="uni049C" unicode="&#x49c;" horiz-adv-x="727" 
d="M655 54.5q45 -30.5 81 -35.5v-19q-30 -10 -65 -10q-47 0 -98 25.5t-117 94.5l-186 195v-99h-43v111h-31v-317h-90v540q0 51 -14 75.5t-56 24.5h-20v20h90q37 0 55.5 -9.5t26.5 -34.5t8 -76v-183h31v104h43v-92l186 186l20 21q28 29 47 45.5t45 27.5t58 11h50v-25
q-42 0 -73 -14.5t-72 -55.5l-195 -195l230 -240q44 -45 89 -75.5z" />
    <glyph glyph-name="uni049D" unicode="&#x49d;" horiz-adv-x="557" 
d="M489.5 44q27.5 -20 59.5 -25v-19q-22 -10 -50 -10q-81 0 -145 80l-101 127v-93h-40v99h-34v-203h-90v350q0 51 -14 75.5t-56 24.5h-20v20h90q37 0 55.5 -9.5t26.5 -34.5t8 -76v-107h34v96h40v-89l111 155q23 32 53.5 48.5t76.5 16.5h25v-25q-58 0 -90 -45l-110 -155
l115 -145q28 -36 55.5 -56z" />
    <glyph glyph-name="uni04A0" unicode="&#x4a0;" horiz-adv-x="782" 
d="M710 54.5q45 -30.5 81 -35.5v-19q-30 -10 -65 -10q-47 0 -98 25.5t-117 94.5l-210 220v-330h-90v620h-45q-125 0 -125 -115h-20v75q0 80 85 80h195v-315l210 210l20 21q28 29 47 45.5t45 27.5t58 11h50v-25q-42 0 -73 -14.5t-72 -55.5l-195 -195l230 -240
q44 -45 89 -75.5z" />
    <glyph glyph-name="uni04A1" unicode="&#x4a1;" horiz-adv-x="590" 
d="M387 70l-115 145v-215h-90v430h-28q-47 0 -76 -26.5t-29 -73.5h-20v60q0 80 75 80h168v-240l125 175q23 32 53.5 48.5t76.5 16.5h25v-25q-58 0 -90 -45l-110 -155l115 -145q28 -36 55.5 -56t59.5 -25v-19q-22 -10 -50 -10q-81 0 -145 80z" />
    <glyph glyph-name="uni04A2" unicode="&#x4a2;" horiz-adv-x="695" 
d="M590 -40q-29 40 -84 40h-10v320h-300v-320h-90v540q0 51 -14 75.5t-56 24.5h-20v20h90q37 0 55.5 -9.5t26.5 -34.5t8 -76v-180h300v300h90v-620h55q15 0 25 -10t10 -25v-185h-45q-12 100 -41 140z" />
    <glyph glyph-name="uni04A3" unicode="&#x4a3;" horiz-adv-x="565" 
d="M469 -35.5q-24 35.5 -73 35.5h-20v215h-200v-215h-90v350q0 51 -14 75.5t-56 24.5h-15v20h85q37 0 55.5 -9.5t26.5 -34.5t8 -76v-95h200v215h90v-430h40q15 0 25 -10t10 -25v-160h-40q-8 84 -32 119.5z" />
    <glyph glyph-name="uni04A4" unicode="&#x4a4;" horiz-adv-x="927" 
d="M906 580v-75h-20q0 115 -125 115h-175v-500q0 -51 14 -75.5t56 -24.5h20v-20h-90q-37 0 -55.5 9.5t-26.5 34.5t-8 76v200h-300v-320h-90v540q0 51 -14 75.5t-56 24.5h-20v20h90q37 0 55.5 -9.5t26.5 -34.5t8 -76v-180h300v180q0 51 -14 75.5t-56 24.5h-20v20h415
q85 0 85 -80z" />
    <glyph glyph-name="uni04A5" unicode="&#x4a5;" horiz-adv-x="729" 
d="M701 390v-60h-20q0 47 -29 73.5t-76 26.5h-110v-310q0 -51 14 -75.5t56 -24.5h15v-20h-85q-37 0 -55.5 9.5t-26.5 34.5t-8 76v95h-200v-215h-90v350q0 51 -14 75.5t-56 24.5h-15v20h85q37 0 55.5 -9.5t26.5 -34.5t8 -76v-95h200v95q0 51 -14 75.5t-56 24.5h-10v20h330
q75 0 75 -80z" />
    <glyph glyph-name="uni04AA" unicode="&#x4aa;" horiz-adv-x="665" 
d="M536 30.5q-54 -38.5 -126 -47.5v-163h-45q-4 71 -10 107.5t-17 52.5q-88 4 -155 50t-103 122t-36 168q0 98 41.5 181t113 131t155.5 48q80 0 140.5 -22.5t89.5 -57.5q17 -21 21 -55.5t4 -94.5h-20q-19 97 -70 143.5t-135 46.5q-108 0 -174 -76t-66 -244q0 -79 25.5 -147
t79.5 -110.5t135 -42.5q73 0 127.5 35t97.5 105l20 -15q-39 -76 -93 -114.5z" />
    <glyph glyph-name="uni04AB" unicode="&#x4ab;" horiz-adv-x="483" 
d="M310 -6v-149h-40q-6 70 -11.5 102t-16.5 44q-96 7 -146.5 75t-50.5 169q0 69 24.5 124.5t74 88t121.5 32.5q110 0 145 -35q17 -17 21 -41.5t4 -88.5h-20q-4 62 -39 93.5t-91 31.5q-72 0 -108.5 -57t-36.5 -148t36.5 -148t108.5 -57q51 0 84 19.5t61 60.5l20 -15
q-52 -87 -140 -101z" />
    <glyph glyph-name="uni04AE" unicode="&#x4ae;" horiz-adv-x="628" 
d="M290 273l-170 257q-26 37 -44 58t-42.5 35.5t-58.5 16.5v20h90q50 0 84 -29.5t66 -80.5l145 -225l209 335h45l-234 -380v-280h-90v273z" />
    <glyph glyph-name="uni04AF" unicode="&#x4af;" horiz-adv-x="497" 
d="M223 0l-124 355q-24 56 -46 78.5t-58 24.5v20q5 0 14.5 1t19.5 1q53 0 96 -26.5t74 -98.5l90 -278l140 393h50l-166 -452v-208h-90v190z" />
    <glyph glyph-name="uni04B0" unicode="&#x4b0;" horiz-adv-x="628" 
d="M381 282h94v-40h-95v-242h-90v242h-95v40h89l-164 248q-26 37 -44 58t-42.5 35.5t-58.5 16.5v20h90q50 0 84 -29.5t66 -80.5l145 -225l209 335h45z" />
    <glyph glyph-name="uni04B1" unicode="&#x4b1;" horiz-adv-x="497" 
d="M314 20h92v-40h-93v-170h-90v170h-97v40h90l-117 335q-24 56 -46 78.5t-58 24.5v20q5 0 14.5 1t19.5 1q53 0 96 -26.5t74 -98.5l90 -278l140 393h50z" />
    <glyph glyph-name="uni04B6" unicode="&#x4b6;" horiz-adv-x="640" 
d="M634 30q10 -10 10 -25v-185h-45q-12 100 -41 140t-84 40h-10v270q-23 -11 -60.5 -15.5t-74.5 -4.5q-76 0 -129 16t-84.5 62.5t-31.5 131.5v80q0 51 -14 75.5t-56 24.5h-10v20h90q37 0 55.5 -9.5t26.5 -34.5t8 -76v-90q0 -64 16.5 -99t48.5 -48t85 -13q34 0 70 5t60 15
v350h90v-620h55q15 0 25 -10z" />
    <glyph glyph-name="uni04B7" unicode="&#x4b7;" horiz-adv-x="533" 
d="M525 30q10 -10 10 -25v-160h-40q-8 84 -32 119.5t-73 35.5h-20v40h1v153q-45 -18 -100 -18q-77 0 -128.5 31.5t-51.5 113.5v30q0 51 -14 75.5t-56 24.5h-10v20h85q37 0 55.5 -9.5t26.5 -34.5t8 -76v-40q0 -49 26 -72t64 -23q50 0 95 18v237h90v-430h39q15 0 25 -10z" />
    <glyph glyph-name="uni04B8" unicode="&#x4b8;" horiz-adv-x="640" 
d="M554 660v-660h-90v270q-31 -15 -101 -19v-109h-43v108q-73 1 -124 17.5t-81.5 62.5t-30.5 130v80q0 51 -14 75.5t-56 24.5h-10v20h90q37 0 55.5 -9.5t26.5 -34.5t8 -76v-90q0 -61 14.5 -95.5t44 -48.5t77.5 -16v107h43v-106q67 4 101 19v350h90z" />
    <glyph glyph-name="uni04B9" unicode="&#x4b9;" horiz-adv-x="533" 
d="M461 470v-470h-90v193q-31 -12 -66 -16v-98h-40v96q-75 1 -124.5 33t-49.5 112v30q0 51 -14 75.5t-56 24.5h-10v20h85q37 0 55.5 -9.5t26.5 -34.5t8 -76v-40q0 -45 22.5 -68.5t56.5 -25.5v98h40v-97q36 4 66 16v237h90z" />
    <glyph glyph-name="uni04BA" unicode="&#x4ba;" horiz-adv-x="640" 
d="M176 390q23 11 60.5 15.5t74.5 4.5q76 0 129 -16t84.5 -62.5t31.5 -131.5v-80q0 -51 14 -75.5t56 -24.5h10v-20h-90q-37 0 -55.5 9.5t-26.5 34.5t-8 76v90q0 64 -16.5 99t-48.5 48t-85 13q-35 0 -70.5 -5t-59.5 -15v-350h-90v660h90v-270z" />
    <glyph glyph-name="uni04BB" unicode="&#x4bb;" horiz-adv-x="529" 
d="M72 540q0 51 -14 75.5t-56 24.5h-20v20h90q37 0 55.5 -9.5t26.5 -34.5t8 -76v-110q21 21 54.5 35.5t75.5 14.5q75 0 122.5 -40t47.5 -140v-300h-90v300q0 70 -31.5 102.5t-78.5 32.5q-53 0 -100 -53v-382h-90v540z" />
    <glyph glyph-name="uni04C0" unicode="&#x4c0;" horiz-adv-x="285" 
d="M123.5 9.5q-18.5 9.5 -26.5 34.5t-8 76v540h90v-540q0 -51 14 -75.5t56 -24.5h20v-20h-90q-37 0 -55.5 9.5z" />
    <glyph glyph-name="uni04C1" unicode="&#x4c1;" horiz-adv-x="949" 
d="M-9 0v19q34 4 79 35t81 76l190 240l-155 195q-31 40 -64 55t-71 15v25h50q47 0 83 -26.5t77 -78.5l170 -210v315h87v-315l170 210q38 49 75.5 77t84.5 28h50v-25q-38 0 -71 -15t-64 -55l-155 -195l190 -240q36 -45 81 -76t79 -35v-19q-30 -10 -65 -10q-45 0 -98.5 25.5
t-106.5 94.5l-170 220v-330h-87v330l-170 -220q-53 -69 -106.5 -94.5t-98.5 -25.5q-35 0 -65 10zM345 800l20 15q36 -45 110 -45t110 45l20 -15q-40 -90 -130 -90t-130 90z" />
    <glyph glyph-name="uni04C2" unicode="&#x4c2;" horiz-adv-x="686" 
d="M8 0v19q34 5 61.5 24.5t53.5 56.5l105 145l-95 155q-14 22 -39 33.5t-56 11.5v25h25q90 0 130 -65l105 -175v240h90v-240l105 175q40 65 130 65h25v-25q-31 0 -56 -11.5t-39 -33.5l-95 -155l105 -145q26 -37 53.5 -56.5t61.5 -24.5v-19q-22 -10 -50 -10q-78 0 -135 80
l-105 145v-215h-90v215l-105 -145q-57 -80 -135 -80q-28 0 -50 10zM213 591l20 15q20 -20 45 -30t65 -10t65 10t45 30l20 -15q-44 -80 -130 -80t-130 80z" />
    <glyph glyph-name="uni04CB" unicode="&#x4cb;" horiz-adv-x="614" 
d="M554 660v-660h-10q-55 0 -84 -40t-41 -140h-45v185q0 15 10 25t25 10h55v230q-23 -11 -60.5 -15.5t-74.5 -4.5q-76 0 -129 16t-84.5 62.5t-31.5 131.5v80q0 51 -14 75.5t-56 24.5h-10v20h90q37 0 55.5 -9.5t26.5 -34.5t8 -76v-90q0 -64 16.5 -99t48.5 -48t85 -13
q34 0 70 5t60 15v350h90z" />
    <glyph glyph-name="uni04CC" unicode="&#x4cc;" horiz-adv-x="511" 
d="M461 470v-470h-20q-49 0 -73 -35.5t-32 -119.5h-40v160q0 15 10 25t25 10h40v153q-45 -18 -100 -18q-77 0 -128.5 31.5t-51.5 113.5v30q0 51 -14 75.5t-56 24.5h-10v20h85q37 0 55.5 -9.5t26.5 -34.5t8 -76v-40q0 -49 26 -72t64 -23q50 0 95 18v237h90z" />
    <glyph glyph-name="uni04CF" unicode="&#x4cf;" horiz-adv-x="242" 
d="M76 540q0 51 -14 75.5t-56 24.5h-20v20h90q37 0 55.5 -9.5t26.5 -34.5t8 -76v-540h-90v540z" />
    <glyph glyph-name="uni04D0" unicode="&#x4d0;" horiz-adv-x="635" 
d="M527 21.5q-47 26.5 -75 103.5l-25 65h-280l-80 -190h-45l280 660h30l220 -535q25 -58 47 -79.5t63 -25.5v-20q-18 -5 -40 -5q-48 0 -95 26.5zM162 230h245l-120 290zM188 800l20 15q36 -45 110 -45t110 45l20 -15q-40 -90 -130 -90t-130 90z" />
    <glyph glyph-name="uni04D1" unicode="&#x4d1;" horiz-adv-x="481" 
d="M119 3.5q-33 13.5 -56.5 44.5t-23.5 82q0 76 70.5 108t184.5 32h30q0 98 -27 134t-78 36q-45 0 -72 -19t-38 -66h-45q0 34 4 53.5t21 36.5q18 18 59.5 26.5t90.5 8.5q81 0 128 -43.5t47 -166.5v-270h-50l-35 45h-5q-18 -23 -53 -39t-87 -16q-32 0 -65 13.5zM284 51
q22 16 40 44v135h-30q-74 0 -117 -27.5t-43 -72.5q0 -46 27.5 -70.5t67.5 -24.5q33 0 55 16zM111 591l20 15q20 -20 45 -30t65 -10t65 10t45 30l20 -15q-44 -80 -130 -80t-130 80z" />
    <glyph glyph-name="uni04D2" unicode="&#x4d2;" horiz-adv-x="635" 
d="M527 21.5q-47 26.5 -75 103.5l-25 65h-280l-80 -190h-45l280 660h30l220 -535q25 -58 47 -79.5t63 -25.5v-20q-18 -5 -40 -5q-48 0 -95 26.5zM162 230h245l-120 290zM201 728q-13 13 -13 32t13 32t32 13t32 -13t13 -32t-13 -32t-32 -13t-32 13zM371 728q-13 13 -13 32
t13 32t32 13t32 -13t13 -32t-13 -32t-32 -13t-32 13z" />
    <glyph glyph-name="uni04D3" unicode="&#x4d3;" horiz-adv-x="481" 
d="M119 3.5q-33 13.5 -56.5 44.5t-23.5 82q0 76 70.5 108t184.5 32h30q0 98 -27 134t-78 36q-45 0 -72 -19t-38 -66h-45q0 34 4 53.5t21 36.5q18 18 59.5 26.5t90.5 8.5q81 0 128 -43.5t47 -166.5v-270h-50l-35 45h-5q-18 -23 -53 -39t-87 -16q-32 0 -65 13.5zM284 51
q22 16 40 44v135h-30q-74 0 -117 -27.5t-43 -72.5q0 -46 27.5 -70.5t67.5 -24.5q33 0 55 16zM124 538q-13 13 -13 32t13 32t32 13t32 -13t13 -32t-13 -32t-32 -13t-32 13zM294 538q-13 13 -13 32t13 32t32 13t32 -13t13 -32t-13 -32t-32 -13t-32 13z" />
    <glyph glyph-name="uni04D4" unicode="&#x4d4;" horiz-adv-x="865" 
d="M356 660h361q85 0 85 -80v-75h-20q0 115 -125 115h-186v-260h270v-40h-270v-280h175q69 0 108 25t62 85l20 -5l-35 -95q-18 -50 -75 -50h-345v190h-240l-105 -190h-50zM166 230h215v385z" />
    <glyph glyph-name="uni04D5" unicode="&#x4d5;" horiz-adv-x="759" 
d="M87.5 22q-48.5 32 -48.5 103q0 72 70.5 103.5t184.5 31.5h30q0 104 -27 142t-78 38q-45 0 -72 -19t-38 -66h-45q0 34 4 53.5t21 36.5q18 18 59.5 26.5t90.5 8.5q51 0 87.5 -25t52.5 -65q16 40 52 65t83 25q101 0 150.5 -56.5t49.5 -163.5l-2 -40h-298q0 -84 36 -137
t99 -53q47 0 79.5 20t60.5 60l20 -15q-33 -55 -77 -80t-103 -25q-117 0 -170 85q-23 -43 -60.5 -64t-99.5 -21q-63 0 -111.5 32zM624 260q0 85 -26.5 130t-78.5 45q-30 0 -54 -23t-37.5 -63t-13.5 -89h210zM284 51q22 16 40 44v125h-30q-74 0 -117 -26t-43 -69t27 -66.5
t68 -23.5q33 0 55 16z" />
    <glyph glyph-name="uni04D6" unicode="&#x4d6;" horiz-adv-x="590" 
d="M106 540q0 51 -14 75.5t-56 24.5h-20v20h426q85 0 85 -80v-75h-20q0 115 -125 115h-186v-260h270v-40h-270v-280h175q69 0 108 25t62 85l20 -5l-35 -95q-18 -50 -75 -50h-345v540zM165 800l20 15q36 -45 110 -45t110 45l20 -15q-40 -90 -130 -90t-130 90z" />
    <glyph glyph-name="uni04D7" unicode="&#x4d7;" horiz-adv-x="488" 
d="M140 22.5q-47 32.5 -71 88t-24 124.5q0 68 24 124t69.5 88.5t106.5 32.5q101 0 150.5 -56.5t49.5 -163.5l-2 -40h-303q0 -84 36 -137t99 -53q47 0 79.5 20t60.5 60l20 -15q-33 -55 -77 -80t-103 -25q-68 0 -115 32.5zM350 260q0 88 -26 134t-79 46q-30 0 -54 -23.5
t-37.5 -64.5t-13.5 -92h210zM114 591l20 15q20 -20 45 -30t65 -10t65 10t45 30l20 -15q-44 -80 -130 -80t-130 80z" />
    <glyph glyph-name="uni04D8" unicode="&#x4d8;" horiz-adv-x="671" 
d="M116.5 59.5q-70.5 79.5 -70.5 231.5l3 56h477q0 84 -27 150t-76.5 103t-115.5 37q-77 0 -127.5 -33t-91.5 -101l-27 22q46 82 108.5 118.5t145.5 36.5q100 0 170 -47t105 -127t35 -179q0 -97 -36 -176t-103 -125t-157 -46q-142 0 -212.5 79.5zM430 55q45 35 70.5 97
t25.5 139h-389q0 -132 48.5 -201.5t143.5 -69.5q56 0 101 35z" />
    <glyph glyph-name="uni04D9" unicode="&#x4d9;" horiz-adv-x="488" 
d="M348 447.5q47 -32.5 71 -88t24 -124.5q0 -68 -24 -124t-69.5 -88.5t-106.5 -32.5q-101 0 -150.5 56.5t-49.5 163.5l2 40h303q0 84 -36 137t-99 53q-47 0 -79.5 -20t-60.5 -60l-20 15q33 55 77 80t103 25q68 0 115 -32.5zM138 210q0 -88 26 -134t79 -46q30 0 54 23.5
t37.5 64.5t13.5 92h-210z" />
    <glyph glyph-name="uni04DC" unicode="&#x4dc;" horiz-adv-x="949" 
d="M-9 0v19q34 4 79 35t81 76l190 240l-155 195q-31 40 -64 55t-71 15v25h50q47 0 83 -26.5t77 -78.5l170 -210v315h87v-315l170 210q38 49 75.5 77t84.5 28h50v-25q-38 0 -71 -15t-64 -55l-155 -195l190 -240q36 -45 81 -76t79 -35v-19q-30 -10 -65 -10q-45 0 -98.5 25.5
t-106.5 94.5l-170 220v-330h-87v330l-170 -220q-53 -69 -106.5 -94.5t-98.5 -25.5q-35 0 -65 10zM358 728q-13 13 -13 32t13 32t32 13t32 -13t13 -32t-13 -32t-32 -13t-32 13zM528 728q-13 13 -13 32t13 32t32 13t32 -13t13 -32t-13 -32t-32 -13t-32 13z" />
    <glyph glyph-name="uni04DD" unicode="&#x4dd;" horiz-adv-x="686" 
d="M8 0v19q34 5 61.5 24.5t53.5 56.5l105 145l-95 155q-14 22 -39 33.5t-56 11.5v25h25q90 0 130 -65l105 -175v240h90v-240l105 175q40 65 130 65h25v-25q-31 0 -56 -11.5t-39 -33.5l-95 -155l105 -145q26 -37 53.5 -56.5t61.5 -24.5v-19q-22 -10 -50 -10q-78 0 -135 80
l-105 145v-215h-90v215l-105 -145q-57 -80 -135 -80q-28 0 -50 10zM226 538q-13 13 -13 32t13 32t32 13t32 -13t13 -32t-13 -32t-32 -13t-32 13zM396 538q-13 13 -13 32t13 32t32 13t32 -13t13 -32t-13 -32t-32 -13t-32 13z" />
    <glyph glyph-name="uni04DE" unicode="&#x4de;" horiz-adv-x="570" 
d="M131.5 8.5q-58.5 28.5 -101.5 96.5l20 15q75 -100 205 -100q80 0 127.5 38.5t47.5 106.5q0 73 -48.5 111.5t-141.5 38.5h-75v40h75q71 0 120.5 38.5t49.5 106.5q0 67 -44.5 103.5t-105.5 36.5q-72 0 -121.5 -42.5t-68.5 -117.5h-20q0 55 4 82t21 48q25 31 80.5 50.5
t109.5 19.5q99 0 169.5 -39t70.5 -146q0 -51 -35 -92t-105 -63q89 -17 127 -60t38 -110q0 -104 -78 -147t-182 -43q-80 0 -138.5 28.5zM148 728q-13 13 -13 32t13 32t32 13t32 -13t13 -32t-13 -32t-32 -13t-32 13zM318 728q-13 13 -13 32t13 32t32 13t32 -13t13 -32t-13 -32
t-32 -13t-32 13z" />
    <glyph glyph-name="uni04DF" unicode="&#x4df;" horiz-adv-x="455" 
d="M106.5 11q-41.5 21 -70.5 59l20 15q25 -25 55.5 -40t79.5 -15q125 0 125 95t-140 95h-45v40h45q61 0 93 22.5t32 67.5q0 43 -28 66.5t-72 23.5q-55 0 -91 -28.5t-39 -76.5h-20q0 49 4 71t21 39q35 35 140 35q77 0 128.5 -30.5t51.5 -99.5q0 -43 -26.5 -70.5t-73.5 -39.5
q55 -11 85 -41t30 -74q0 -135 -200 -135q-63 0 -104.5 21zM91 538q-13 13 -13 32t13 32t32 13t32 -13t13 -32t-13 -32t-32 -13t-32 13zM261 538q-13 13 -13 32t13 32t32 13t32 -13t13 -32t-13 -32t-32 -13t-32 13z" />
    <glyph glyph-name="uni04E2" unicode="&#x4e2;" horiz-adv-x="692" 
d="M106 540q0 51 -14 75.5t-56 24.5h-20v20h90q37 0 55.5 -9.5t26.5 -34.5t8 -76v-450l320 570h90v-660h-90v570l-320 -570h-90v540zM218 740v60h255v-60h-255z" />
    <glyph glyph-name="uni04E3" unicode="&#x4e3;" horiz-adv-x="548" 
d="M86 350q0 51 -14 75.5t-56 24.5h-15v20h85q37 0 55.5 -9.5t26.5 -34.5t8 -76v-260l210 380h90v-470h-90v380l-210 -380h-90v350zM146 550v60h255v-60h-255z" />
    <glyph glyph-name="uni04E4" unicode="&#x4e4;" horiz-adv-x="692" 
d="M106 540q0 51 -14 75.5t-56 24.5h-20v20h90q37 0 55.5 -9.5t26.5 -34.5t8 -76v-450l320 570h90v-660h-90v570l-320 -570h-90v540zM229 728q-13 13 -13 32t13 32t32 13t32 -13t13 -32t-13 -32t-32 -13t-32 13zM399 728q-13 13 -13 32t13 32t32 13t32 -13t13 -32t-13 -32
t-32 -13t-32 13z" />
    <glyph glyph-name="uni04E5" unicode="&#x4e5;" horiz-adv-x="548" 
d="M86 350q0 51 -14 75.5t-56 24.5h-15v20h85q37 0 55.5 -9.5t26.5 -34.5t8 -76v-260l210 380h90v-470h-90v380l-210 -380h-90v350zM157 538q-13 13 -13 32t13 32t32 13t32 -13t13 -32t-13 -32t-32 -13t-32 13zM327 538q-13 13 -13 32t13 32t32 13t32 -13t13 -32t-13 -32
t-32 -13t-32 13z" />
    <glyph glyph-name="uni04E6" unicode="&#x4e6;" horiz-adv-x="712" 
d="M192.5 26q-70.5 46 -108.5 126t-38 178t38 178t108.5 126t163.5 46t163.5 -46t108.5 -126t38 -178t-38 -178t-108.5 -126t-163.5 -46t-163.5 46zM468.5 58q47.5 38 72.5 107.5t25 164.5t-25 164.5t-72.5 107.5t-112.5 38t-112.5 -38t-72.5 -107.5t-25 -164.5t25 -164.5
t72.5 -107.5t112.5 -38t112.5 38zM239 728q-13 13 -13 32t13 32t32 13t32 -13t13 -32t-13 -32t-32 -13t-32 13zM409 728q-13 13 -13 32t13 32t32 13t32 -13t13 -32t-13 -32t-32 -13t-32 13z" />
    <glyph glyph-name="uni04E7" unicode="&#x4e7;" 
d="M147 22.5q-50 32.5 -76 88.5t-26 124t26 124t76 88.5t118 32.5t118 -32.5t76 -88.5t26 -124t-26 -124t-76 -88.5t-118 -32.5t-118 32.5zM330.5 57q28.5 27 44 74t15.5 104t-15.5 104t-44 74t-65.5 27t-65.5 -27t-44 -74t-15.5 -104t15.5 -104t44 -74t65.5 -27t65.5 27z
M148 538q-13 13 -13 32t13 32t32 13t32 -13t13 -32t-13 -32t-32 -13t-32 13zM318 538q-13 13 -13 32t13 32t32 13t32 -13t13 -32t-13 -32t-32 -13t-32 13z" />
    <glyph glyph-name="uni04E8" unicode="&#x4e8;" horiz-adv-x="712" 
d="M519.5 634q70.5 -46 108.5 -126t38 -178t-38 -178t-108.5 -126t-163.5 -46t-163.5 46t-108.5 126t-38 178t38 178t108.5 126t163.5 46t163.5 -46zM208.5 565q-55.5 -75 -61.5 -205h418q-6 130 -61.5 205t-147.5 75t-147.5 -75zM508 100.5q56 80.5 58 219.5h-420
q2 -139 58 -219.5t152 -80.5t152 80.5z" />
    <glyph glyph-name="uni04E9" unicode="&#x4e9;" 
d="M383 447.5q50 -32.5 76 -88.5t26 -124t-26 -124t-76 -88.5t-118 -32.5t-118 32.5t-76 88.5t-26 124t26 124t76 88.5t118 32.5t118 -32.5zM179 387.5q-34 -52.5 -38 -132.5h248q-4 80 -38 132.5t-86 52.5t-86 -52.5zM351 82.5q34 52.5 38 132.5h-248q4 -80 38 -132.5
t86 -52.5t86 52.5z" />
    <glyph glyph-name="uni04EE" unicode="&#x4ee;" horiz-adv-x="607" 
d="M132 20q52 0 93 17t57 58l10 25l-185 410q-15 36 -29 57t-39 36t-67 17v20h120q43 0 70.5 -29.5t49.5 -80.5l135 -300l180 410h60l-246 -565q-45 -105 -159 -105h-50v30zM188 740v60h255v-60h-255z" />
    <glyph glyph-name="uni04EF" unicode="&#x4ef;" horiz-adv-x="514" 
d="M105 -170q49 0 80.5 22.5t54.5 82.5l20 55l-160 390q-28 72 -110 80v20h85q87 0 120 -80l114 -277l126 347h50l-195 -535q-29 -79 -64 -107t-91 -28h-30v30zM157 550v60h255v-60h-255z" />
    <glyph glyph-name="uni04F0" unicode="&#x4f0;" horiz-adv-x="607" 
d="M132 20q52 0 93 17t57 58l10 25l-185 410q-15 36 -29 57t-39 36t-67 17v20h120q43 0 70.5 -29.5t49.5 -80.5l135 -300l180 410h60l-246 -565q-45 -105 -159 -105h-50v30zM199 728q-13 13 -13 32t13 32t32 13t32 -13t13 -32t-13 -32t-32 -13t-32 13zM369 728
q-13 13 -13 32t13 32t32 13t32 -13t13 -32t-13 -32t-32 -13t-32 13z" />
    <glyph glyph-name="uni04F1" unicode="&#x4f1;" horiz-adv-x="514" 
d="M105 -170q49 0 80.5 22.5t54.5 82.5l20 55l-160 390q-28 72 -110 80v20h85q87 0 120 -80l114 -277l126 347h50l-195 -535q-29 -79 -64 -107t-91 -28h-30v30zM168 538q-13 13 -13 32t13 32t32 13t32 -13t13 -32t-13 -32t-32 -13t-32 13zM338 538q-13 13 -13 32t13 32
t32 13t32 -13t13 -32t-13 -32t-32 -13t-32 13z" />
    <glyph glyph-name="uni04F2" unicode="&#x4f2;" horiz-adv-x="607" 
d="M132 20q52 0 93 17t57 58l10 25l-185 410q-15 36 -29 57t-39 36t-67 17v20h120q43 0 70.5 -29.5t49.5 -80.5l135 -300l180 410h60l-246 -565q-45 -105 -159 -105h-50v30zM250 705l40 130h65l-75 -130h-30zM350 705l40 130h65l-75 -130h-30z" />
    <glyph glyph-name="uni04F3" unicode="&#x4f3;" horiz-adv-x="514" 
d="M105 -170q49 0 80.5 22.5t54.5 82.5l20 55l-160 390q-28 72 -110 80v20h85q87 0 120 -80l114 -277l126 347h50l-195 -535q-29 -79 -64 -107t-91 -28h-30v30zM219 515l40 130h65l-75 -130h-30zM319 515l40 130h65l-75 -130h-30z" />
    <glyph glyph-name="uni04F4" unicode="&#x4f4;" horiz-adv-x="640" 
d="M464 270q-23 -11 -60.5 -15.5t-74.5 -4.5q-76 0 -129 16t-84.5 62.5t-31.5 131.5v80q0 51 -14 75.5t-56 24.5h-10v20h90q37 0 55.5 -9.5t26.5 -34.5t8 -76v-90q0 -64 16.5 -99t48.5 -48t85 -13q34 0 70 5t60 15v350h90v-660h-90v270zM203 728q-13 13 -13 32t13 32t32 13
t32 -13t13 -32t-13 -32t-32 -13t-32 13zM373 728q-13 13 -13 32t13 32t32 13t32 -13t13 -32t-13 -32t-32 -13t-32 13z" />
    <glyph glyph-name="uni04F5" unicode="&#x4f5;" horiz-adv-x="533" 
d="M371 193q-45 -18 -100 -18q-77 0 -128.5 31.5t-51.5 113.5v30q0 51 -14 75.5t-56 24.5h-10v20h85q37 0 55.5 -9.5t26.5 -34.5t8 -76v-40q0 -49 26 -72t64 -23q50 0 95 18v237h90v-470h-90v193zM150 538q-13 13 -13 32t13 32t32 13t32 -13t13 -32t-13 -32t-32 -13t-32 13z
M320 538q-13 13 -13 32t13 32t32 13t32 -13t13 -32t-13 -32t-32 -13t-32 13z" />
    <glyph glyph-name="uni04F6" unicode="&#x4f6;" horiz-adv-x="537" 
d="M516 580v-75h-20q0 115 -125 115h-175v-580h55q15 0 25 -10t10 -25v-185h-45q-12 100 -41 140t-84 40h-10v540q0 51 -14 75.5t-56 24.5h-20v20h415q85 0 85 -80z" />
    <glyph glyph-name="uni04F7" unicode="&#x4f7;" horiz-adv-x="435" 
d="M407 390v-60h-20q0 47 -29 73.5t-76 26.5h-110v-390h40q15 0 25 -10t10 -25v-160h-40q-8 84 -32 119.5t-73 35.5h-20v350q0 51 -14 75.5t-56 24.5h-10v20h330q75 0 75 -80z" />
    <glyph glyph-name="uni04F8" unicode="&#x4f8;" horiz-adv-x="832" 
d="M106 540q0 51 -14 75.5t-56 24.5h-20v20h90q37 0 55.5 -9.5t26.5 -34.5t8 -76v-160h110q99 0 174.5 -41.5t75.5 -148.5t-75.5 -148.5t-174.5 -41.5h-200v540zM670.5 9.5q-18.5 9.5 -26.5 34.5t-8 76v540h90v-540q0 -51 14 -75.5t56 -24.5h20v-20h-90q-37 0 -55.5 9.5z
M410.5 74.5q45.5 39.5 45.5 115.5t-45.5 115.5t-119.5 39.5q-47 0 -95 -14v-282q48 -14 95 -14q74 0 119.5 39.5zM299 728q-13 13 -13 32t13 32t32 13t32 -13t13 -32t-13 -32t-32 -13t-32 13zM469 728q-13 13 -13 32t13 32t32 13t32 -13t13 -32t-13 -32t-32 -13t-32 13z" />
    <glyph glyph-name="uni04F9" unicode="&#x4f9;" horiz-adv-x="688" 
d="M86 350q0 51 -14 75.5t-56 24.5h-15v20h85q37 0 55.5 -9.5t26.5 -34.5t8 -76v-70h75q195 0 195 -140t-195 -140h-165v350zM545.5 9.5q-18.5 9.5 -26.5 34.5t-8 76v350h90v-350q0 -51 14 -75.5t56 -24.5h15v-20h-85q-37 0 -55.5 9.5zM322 60q29 25 29 80t-29 80t-81 25
q-15 0 -34 -3t-31 -7v-190q12 -4 31 -7t34 -3q52 0 81 25zM227 538q-13 13 -13 32t13 32t32 13t32 -13t13 -32t-13 -32t-32 -13t-32 13zM397 538q-13 13 -13 32t13 32t32 13t32 -13t13 -32t-13 -32t-32 -13t-32 13z" />
    <glyph glyph-name="uni051A" unicode="&#x51a;" horiz-adv-x="714" 
d="M456 -160q-102 45 -189 153q-102 30 -161 122t-59 215q0 98 38 178t108.5 126t163.5 46t163.5 -46t108.5 -126t38 -178q0 -126 -61.5 -218.5t-166.5 -120.5q15 -48 55 -88.5t90 -64t93 -23.5v-20q-119 0 -221 45zM469.5 58q47.5 38 72.5 107.5t25 164.5t-25 164.5
t-72.5 107.5t-112.5 38t-112.5 -38t-72.5 -107.5t-25 -164.5t25 -164.5t72.5 -107.5t112.5 -38t112.5 38z" />
    <glyph glyph-name="uni051B" unicode="&#x51b;" horiz-adv-x="524" 
d="M362 20q-29 -14 -58 -22t-67 -8q-93 0 -141.5 69t-48.5 176t46.5 176t133.5 69q51 0 84 -16t51 -39h5l35 45h50v-660h-90v210zM310 38q22 8 52 22v320q-21 28 -44 44t-61 16q-57 0 -86 -56.5t-29 -148.5q0 -93 30.5 -149t94.5 -56q21 0 43 8z" />
    <glyph glyph-name="uni051C" unicode="&#x51c;" horiz-adv-x="866" 
d="M78 543q-20 58 -42.5 79.5t-67.5 25.5v20q5 0 14.5 1t19.5 1q55 0 99.5 -25t71.5 -102l134 -386l107 317l-24 69q-20 58 -42.5 79.5t-67.5 25.5v20q5 0 14.5 1t19.5 1q55 0 99.5 -25t71.5 -102l134 -386l171 503h43l-229 -670h-20l-148 421l-144 -421h-20z" />
    <glyph glyph-name="uni051D" unicode="&#x51d;" horiz-adv-x="749" 
d="M100 355q-23 56 -45.5 78.5t-59.5 24.5v20q5 0 15 1t20 1q54 0 95.5 -27.5t69.5 -97.5l85 -210l85 215q-24 53 -45.5 74.5t-54.5 23.5v20q5 0 15 1t20 1q54 0 95.5 -27.5t69.5 -97.5l85 -210l130 325h50l-195 -480h-20l-125 310l-125 -310h-20z" />
    <glyph glyph-name="uni0524" unicode="&#x524;" horiz-adv-x="695" 
d="M666 30q10 -10 10 -25v-185h-45q-12 100 -41 140t-84 40h-10v620h-300v-620h-90v540q0 51 -14 75.5t-56 24.5h-20v20h570v-620h55q15 0 25 -10z" />
    <glyph glyph-name="uni0525" unicode="&#x525;" horiz-adv-x="561" 
d="M527 30q10 -10 10 -25v-160h-40q-8 84 -32 119.5t-73 35.5h-20v430h-200v-430h-90v350q0 51 -14 75.5t-56 24.5h-10v20h460v-430h40q15 0 25 -10z" />
    <glyph glyph-name="uni1EA0" unicode="&#x1ea0;" horiz-adv-x="635" 
d="M527 21.5q-47 26.5 -75 103.5l-25 65h-280l-80 -190h-45l280 660h30l220 -535q25 -58 47 -79.5t63 -25.5v-20q-18 -5 -40 -5q-48 0 -95 26.5zM162 230h245l-120 290zM286.5 -143.5q-13.5 13.5 -13.5 32.5q0 18 13.5 31t31.5 13q19 0 31.5 -13t12.5 -31q0 -19 -13 -32.5
t-31 -13.5t-31.5 13.5z" />
    <glyph glyph-name="uni1EA1" unicode="&#x1ea1;" horiz-adv-x="481" 
d="M119 3.5q-33 13.5 -56.5 44.5t-23.5 82q0 76 70.5 108t184.5 32h30q0 98 -27 134t-78 36q-45 0 -72 -19t-38 -66h-45q0 34 4 53.5t21 36.5q18 18 59.5 26.5t90.5 8.5q81 0 128 -43.5t47 -166.5v-270h-50l-35 45h-5q-18 -23 -53 -39t-87 -16q-32 0 -65 13.5zM284 51
q22 16 40 44v135h-30q-74 0 -117 -27.5t-43 -72.5q0 -46 27.5 -70.5t67.5 -24.5q33 0 55 16zM209.5 -143.5q-13.5 13.5 -13.5 32.5q0 18 13.5 31t31.5 13q19 0 31.5 -13t12.5 -31q0 -19 -13 -32.5t-31 -13.5t-31.5 13.5z" />
    <glyph glyph-name="uni1EA2" unicode="&#x1ea2;" horiz-adv-x="635" 
d="M527 21.5q-47 26.5 -75 103.5l-25 65h-280l-80 -190h-45l280 660h30l220 -535q25 -58 47 -79.5t63 -25.5v-20q-18 -5 -40 -5q-48 0 -95 26.5zM162 230h245l-120 290zM325.5 745.5q5.5 14.5 15.5 31.5q5 9 9 17.5t4 16.5q0 14 -8.5 22t-24.5 8q-20 0 -31.5 -11t-16.5 -39
l-42 1q0 40 24.5 63t65.5 23q33 0 58.5 -14.5t25.5 -42.5q0 -13 -6 -23.5t-18 -24.5q-14 -16 -22 -29.5t-9 -32.5h-31q1 20 6.5 34.5z" />
    <glyph glyph-name="uni1EA3" unicode="&#x1ea3;" horiz-adv-x="481" 
d="M119 3.5q-33 13.5 -56.5 44.5t-23.5 82q0 76 70.5 108t184.5 32h30q0 98 -27 134t-78 36q-45 0 -72 -19t-38 -66h-45q0 34 4 53.5t21 36.5q18 18 59.5 26.5t90.5 8.5q81 0 128 -43.5t47 -166.5v-270h-50l-35 45h-5q-18 -23 -53 -39t-87 -16q-32 0 -65 13.5zM284 51
q22 16 40 44v135h-30q-74 0 -117 -27.5t-43 -72.5q0 -46 27.5 -70.5t67.5 -24.5q33 0 55 16zM248.5 555.5q5.5 14.5 15.5 31.5q5 9 9 17.5t4 16.5q0 14 -8.5 22t-24.5 8q-20 0 -31.5 -11t-16.5 -39l-42 1q0 40 24.5 63t65.5 23q33 0 58.5 -14.5t25.5 -42.5q0 -13 -6 -23.5
t-18 -24.5q-14 -16 -22 -29.5t-9 -32.5h-31q1 20 6.5 34.5z" />
    <glyph glyph-name="uni1EA4" unicode="&#x1ea4;" horiz-adv-x="635" 
d="M527 21.5q-47 26.5 -75 103.5l-25 65h-280l-80 -190h-45l280 660h30l220 -535q25 -58 47 -79.5t63 -25.5v-20q-18 -5 -40 -5q-48 0 -95 26.5zM162 230h245l-120 290zM183 710l80 115h110l80 -115h-50l-85 80l-85 -80h-50zM443 767l40 130h95l-95 -130h-40z" />
    <glyph glyph-name="uni1EA5" unicode="&#x1ea5;" horiz-adv-x="481" 
d="M119 3.5q-33 13.5 -56.5 44.5t-23.5 82q0 76 70.5 108t184.5 32h30q0 98 -27 134t-78 36q-45 0 -72 -19t-38 -66h-45q0 34 4 53.5t21 36.5q18 18 59.5 26.5t90.5 8.5q81 0 128 -43.5t47 -166.5v-270h-50l-35 45h-5q-18 -23 -53 -39t-87 -16q-32 0 -65 13.5zM284 51
q22 16 40 44v135h-30q-74 0 -117 -27.5t-43 -72.5q0 -46 27.5 -70.5t67.5 -24.5q33 0 55 16zM106 520l80 115h110l80 -115h-50l-85 80l-85 -80h-50zM366 577l40 130h95l-95 -130h-40z" />
    <glyph glyph-name="uni1EA6" unicode="&#x1ea6;" horiz-adv-x="635" 
d="M527 21.5q-47 26.5 -75 103.5l-25 65h-280l-80 -190h-45l280 660h30l220 -535q25 -58 47 -79.5t63 -25.5v-20q-18 -5 -40 -5q-48 0 -95 26.5zM162 230h245l-120 290zM183 710l80 115h110l80 -115h-50l-85 80l-85 -80h-50zM446 793l-95 130h95l40 -130h-40z" />
    <glyph glyph-name="uni1EA7" unicode="&#x1ea7;" horiz-adv-x="481" 
d="M119 3.5q-33 13.5 -56.5 44.5t-23.5 82q0 76 70.5 108t184.5 32h30q0 98 -27 134t-78 36q-45 0 -72 -19t-38 -66h-45q0 34 4 53.5t21 36.5q18 18 59.5 26.5t90.5 8.5q81 0 128 -43.5t47 -166.5v-270h-50l-35 45h-5q-18 -23 -53 -39t-87 -16q-32 0 -65 13.5zM284 51
q22 16 40 44v135h-30q-74 0 -117 -27.5t-43 -72.5q0 -46 27.5 -70.5t67.5 -24.5q33 0 55 16zM106 520l80 115h110l80 -115h-50l-85 80l-85 -80h-50zM369 603l-95 130h95l40 -130h-40z" />
    <glyph glyph-name="uni1EA8" unicode="&#x1ea8;" horiz-adv-x="635" 
d="M527 21.5q-47 26.5 -75 103.5l-25 65h-280l-80 -190h-45l280 660h30l220 -535q25 -58 47 -79.5t63 -25.5v-20q-18 -5 -40 -5q-48 0 -95 26.5zM162 230h245l-120 290zM183 710l80 115h110l80 -115h-50l-85 80l-85 -80h-50zM440.5 832.5q5.5 14.5 15.5 31.5q5 9 9 17.5
t4 16.5q0 14 -8.5 22t-24.5 8q-20 0 -31.5 -11t-16.5 -39l-42 1q0 40 24.5 63t65.5 23q33 0 58.5 -14.5t25.5 -42.5q0 -13 -6 -23.5t-18 -24.5q-14 -16 -22 -29.5t-9 -32.5h-31q1 20 6.5 34.5z" />
    <glyph glyph-name="uni1EA9" unicode="&#x1ea9;" horiz-adv-x="481" 
d="M119 3.5q-33 13.5 -56.5 44.5t-23.5 82q0 76 70.5 108t184.5 32h30q0 98 -27 134t-78 36q-45 0 -72 -19t-38 -66h-45q0 34 4 53.5t21 36.5q18 18 59.5 26.5t90.5 8.5q81 0 128 -43.5t47 -166.5v-270h-50l-35 45h-5q-18 -23 -53 -39t-87 -16q-32 0 -65 13.5zM284 51
q22 16 40 44v135h-30q-74 0 -117 -27.5t-43 -72.5q0 -46 27.5 -70.5t67.5 -24.5q33 0 55 16zM106 520l80 115h110l80 -115h-50l-85 80l-85 -80h-50zM363.5 642.5q5.5 14.5 15.5 31.5q5 9 9 17.5t4 16.5q0 14 -8.5 22t-24.5 8q-20 0 -31.5 -11t-16.5 -39l-42 1q0 40 24.5 63
t65.5 23q33 0 58.5 -14.5t25.5 -42.5q0 -13 -6 -23.5t-18 -24.5q-14 -16 -22 -29.5t-9 -32.5h-31q1 20 6.5 34.5z" />
    <glyph glyph-name="uni1EAA" unicode="&#x1eaa;" horiz-adv-x="635" 
d="M527 21.5q-47 26.5 -75 103.5l-25 65h-280l-80 -190h-45l280 660h30l220 -535q25 -58 47 -79.5t63 -25.5v-20q-18 -5 -40 -5q-48 0 -95 26.5zM162 230h245l-120 290zM183 710l80 115h110l80 -115h-50l-85 80l-85 -80h-50zM219.5 931.5q14.5 21.5 45.5 21.5
q15 0 27.5 -5.5t27.5 -15.5q3 -2 13 -7.5t19 -8.5t18 -3q11 0 20.5 14t9.5 26h30q0 -52 -14.5 -73.5t-45.5 -21.5q-14 0 -26.5 5t-27.5 15q-17 10 -27.5 15t-23.5 5q-11 0 -20.5 -14t-9.5 -26h-30q0 52 14.5 73.5z" />
    <glyph glyph-name="uni1EAB" unicode="&#x1eab;" horiz-adv-x="481" 
d="M119 3.5q-33 13.5 -56.5 44.5t-23.5 82q0 76 70.5 108t184.5 32h30q0 98 -27 134t-78 36q-45 0 -72 -19t-38 -66h-45q0 34 4 53.5t21 36.5q18 18 59.5 26.5t90.5 8.5q81 0 128 -43.5t47 -166.5v-270h-50l-35 45h-5q-18 -23 -53 -39t-87 -16q-32 0 -65 13.5zM284 51
q22 16 40 44v135h-30q-74 0 -117 -27.5t-43 -72.5q0 -46 27.5 -70.5t67.5 -24.5q33 0 55 16zM106 520l80 115h110l80 -115h-50l-85 80l-85 -80h-50zM142.5 741.5q14.5 21.5 45.5 21.5q15 0 27.5 -5.5t27.5 -15.5q3 -2 13 -7.5t19 -8.5t18 -3q11 0 20.5 14t9.5 26h30
q0 -52 -14.5 -73.5t-45.5 -21.5q-14 0 -26.5 5t-27.5 15q-17 10 -27.5 15t-23.5 5q-11 0 -20.5 -14t-9.5 -26h-30q0 52 14.5 73.5z" />
    <glyph glyph-name="uni1EAC" unicode="&#x1eac;" horiz-adv-x="635" 
d="M527 21.5q-47 26.5 -75 103.5l-25 65h-280l-80 -190h-45l280 660h30l220 -535q25 -58 47 -79.5t63 -25.5v-20q-18 -5 -40 -5q-48 0 -95 26.5zM162 230h245l-120 290zM286.5 -143.5q-13.5 13.5 -13.5 32.5q0 18 13.5 31t31.5 13q19 0 31.5 -13t12.5 -31q0 -19 -13 -32.5
t-31 -13.5t-31.5 13.5zM183 710l80 115h110l80 -115h-50l-85 80l-85 -80h-50z" />
    <glyph glyph-name="uni1EAD" unicode="&#x1ead;" horiz-adv-x="481" 
d="M119 3.5q-33 13.5 -56.5 44.5t-23.5 82q0 76 70.5 108t184.5 32h30q0 98 -27 134t-78 36q-45 0 -72 -19t-38 -66h-45q0 34 4 53.5t21 36.5q18 18 59.5 26.5t90.5 8.5q81 0 128 -43.5t47 -166.5v-270h-50l-35 45h-5q-18 -23 -53 -39t-87 -16q-32 0 -65 13.5zM284 51
q22 16 40 44v135h-30q-74 0 -117 -27.5t-43 -72.5q0 -46 27.5 -70.5t67.5 -24.5q33 0 55 16zM209.5 -143.5q-13.5 13.5 -13.5 32.5q0 18 13.5 31t31.5 13q19 0 31.5 -13t12.5 -31q0 -19 -13 -32.5t-31 -13.5t-31.5 13.5zM106 520l80 115h110l80 -115h-50l-85 80l-85 -80h-50
z" />
    <glyph glyph-name="uni1EAE" unicode="&#x1eae;" horiz-adv-x="635" 
d="M527 21.5q-47 26.5 -75 103.5l-25 65h-280l-80 -190h-45l280 660h30l220 -535q25 -58 47 -79.5t63 -25.5v-20q-18 -5 -40 -5q-48 0 -95 26.5zM162 230h245l-120 290zM188 781l20 15q20 -20 45 -30t65 -10t65 10t45 30l20 -15q-44 -80 -130 -80t-130 80zM290 841l40 130
h95l-95 -130h-40z" />
    <glyph glyph-name="uni1EAF" unicode="&#x1eaf;" horiz-adv-x="481" 
d="M119 3.5q-33 13.5 -56.5 44.5t-23.5 82q0 76 70.5 108t184.5 32h30q0 98 -27 134t-78 36q-45 0 -72 -19t-38 -66h-45q0 34 4 53.5t21 36.5q18 18 59.5 26.5t90.5 8.5q81 0 128 -43.5t47 -166.5v-270h-50l-35 45h-5q-18 -23 -53 -39t-87 -16q-32 0 -65 13.5zM284 51
q22 16 40 44v135h-30q-74 0 -117 -27.5t-43 -72.5q0 -46 27.5 -70.5t67.5 -24.5q33 0 55 16zM111 591l20 15q20 -20 45 -30t65 -10t65 10t45 30l20 -15q-44 -80 -130 -80t-130 80zM213 651l40 130h95l-95 -130h-40z" />
    <glyph glyph-name="uni1EB0" unicode="&#x1eb0;" horiz-adv-x="635" 
d="M527 21.5q-47 26.5 -75 103.5l-25 65h-280l-80 -190h-45l280 660h30l220 -535q25 -58 47 -79.5t63 -25.5v-20q-18 -5 -40 -5q-48 0 -95 26.5zM162 230h245l-120 290zM188 781l20 15q20 -20 45 -30t65 -10t65 10t45 30l20 -15q-44 -80 -130 -80t-130 80zM308 841l-95 130
h95l40 -130h-40z" />
    <glyph glyph-name="uni1EB1" unicode="&#x1eb1;" horiz-adv-x="481" 
d="M119 3.5q-33 13.5 -56.5 44.5t-23.5 82q0 76 70.5 108t184.5 32h30q0 98 -27 134t-78 36q-45 0 -72 -19t-38 -66h-45q0 34 4 53.5t21 36.5q18 18 59.5 26.5t90.5 8.5q81 0 128 -43.5t47 -166.5v-270h-50l-35 45h-5q-18 -23 -53 -39t-87 -16q-32 0 -65 13.5zM284 51
q22 16 40 44v135h-30q-74 0 -117 -27.5t-43 -72.5q0 -46 27.5 -70.5t67.5 -24.5q33 0 55 16zM111 591l20 15q20 -20 45 -30t65 -10t65 10t45 30l20 -15q-44 -80 -130 -80t-130 80zM231 651l-95 130h95l40 -130h-40z" />
    <glyph glyph-name="uni1EB2" unicode="&#x1eb2;" horiz-adv-x="635" 
d="M527 21.5q-47 26.5 -75 103.5l-25 65h-280l-80 -190h-45l280 660h30l220 -535q25 -58 47 -79.5t63 -25.5v-20q-18 -5 -40 -5q-48 0 -95 26.5zM162 230h245l-120 290zM188 781l20 15q20 -20 45 -30t65 -10t65 10t45 30l20 -15q-44 -80 -130 -80t-130 80zM304.5 842.5
q5.5 14.5 15.5 31.5q5 9 9 17.5t4 16.5q0 14 -8.5 22t-24.5 8q-20 0 -31.5 -11t-16.5 -39l-42 1q0 40 24.5 63t65.5 23q33 0 58.5 -14.5t25.5 -42.5q0 -13 -6 -23.5t-18 -24.5q-14 -16 -22 -29.5t-9 -32.5h-31q1 20 6.5 34.5z" />
    <glyph glyph-name="uni1EB3" unicode="&#x1eb3;" horiz-adv-x="481" 
d="M119 3.5q-33 13.5 -56.5 44.5t-23.5 82q0 76 70.5 108t184.5 32h30q0 98 -27 134t-78 36q-45 0 -72 -19t-38 -66h-45q0 34 4 53.5t21 36.5q18 18 59.5 26.5t90.5 8.5q81 0 128 -43.5t47 -166.5v-270h-50l-35 45h-5q-18 -23 -53 -39t-87 -16q-32 0 -65 13.5zM284 51
q22 16 40 44v135h-30q-74 0 -117 -27.5t-43 -72.5q0 -46 27.5 -70.5t67.5 -24.5q33 0 55 16zM111 591l20 15q20 -20 45 -30t65 -10t65 10t45 30l20 -15q-44 -80 -130 -80t-130 80zM227.5 652.5q5.5 14.5 15.5 31.5q5 9 9 17.5t4 16.5q0 14 -8.5 22t-24.5 8q-20 0 -31.5 -11
t-16.5 -39l-42 1q0 40 24.5 63t65.5 23q33 0 58.5 -14.5t25.5 -42.5q0 -13 -6 -23.5t-18 -24.5q-14 -16 -22 -29.5t-9 -32.5h-31q1 20 6.5 34.5z" />
    <glyph glyph-name="uni1EB4" unicode="&#x1eb4;" horiz-adv-x="635" 
d="M527 21.5q-47 26.5 -75 103.5l-25 65h-280l-80 -190h-45l280 660h30l220 -535q25 -58 47 -79.5t63 -25.5v-20q-18 -5 -40 -5q-48 0 -95 26.5zM162 230h245l-120 290zM188 781l20 15q20 -20 45 -30t65 -10t65 10t45 30l20 -15q-44 -80 -130 -80t-130 80zM219.5 905.5
q14.5 21.5 45.5 21.5q15 0 27.5 -5.5t27.5 -15.5q3 -2 13 -7.5t19 -8.5t18 -3q11 0 20.5 14t9.5 26h30q0 -52 -14.5 -73.5t-45.5 -21.5q-14 0 -26.5 5t-27.5 15q-17 10 -27.5 15t-23.5 5q-11 0 -20.5 -14t-9.5 -26h-30q0 52 14.5 73.5z" />
    <glyph glyph-name="uni1EB5" unicode="&#x1eb5;" horiz-adv-x="481" 
d="M119 3.5q-33 13.5 -56.5 44.5t-23.5 82q0 76 70.5 108t184.5 32h30q0 98 -27 134t-78 36q-45 0 -72 -19t-38 -66h-45q0 34 4 53.5t21 36.5q18 18 59.5 26.5t90.5 8.5q81 0 128 -43.5t47 -166.5v-270h-50l-35 45h-5q-18 -23 -53 -39t-87 -16q-32 0 -65 13.5zM284 51
q22 16 40 44v135h-30q-74 0 -117 -27.5t-43 -72.5q0 -46 27.5 -70.5t67.5 -24.5q33 0 55 16zM111 591l20 15q20 -20 45 -30t65 -10t65 10t45 30l20 -15q-44 -80 -130 -80t-130 80zM142.5 715.5q14.5 21.5 45.5 21.5q15 0 27.5 -5.5t27.5 -15.5q3 -2 13 -7.5t19 -8.5t18 -3
q11 0 20.5 14t9.5 26h30q0 -52 -14.5 -73.5t-45.5 -21.5q-14 0 -26.5 5t-27.5 15q-17 10 -27.5 15t-23.5 5q-11 0 -20.5 -14t-9.5 -26h-30q0 52 14.5 73.5z" />
    <glyph glyph-name="uni1EB6" unicode="&#x1eb6;" horiz-adv-x="635" 
d="M527 21.5q-47 26.5 -75 103.5l-25 65h-280l-80 -190h-45l280 660h30l220 -535q25 -58 47 -79.5t63 -25.5v-20q-18 -5 -40 -5q-48 0 -95 26.5zM162 230h245l-120 290zM286.5 -143.5q-13.5 13.5 -13.5 32.5q0 18 13.5 31t31.5 13q19 0 31.5 -13t12.5 -31q0 -19 -13 -32.5
t-31 -13.5t-31.5 13.5zM188 781l20 15q20 -20 45 -30t65 -10t65 10t45 30l20 -15q-44 -80 -130 -80t-130 80z" />
    <glyph glyph-name="uni1EB7" unicode="&#x1eb7;" horiz-adv-x="481" 
d="M119 3.5q-33 13.5 -56.5 44.5t-23.5 82q0 76 70.5 108t184.5 32h30q0 98 -27 134t-78 36q-45 0 -72 -19t-38 -66h-45q0 34 4 53.5t21 36.5q18 18 59.5 26.5t90.5 8.5q81 0 128 -43.5t47 -166.5v-270h-50l-35 45h-5q-18 -23 -53 -39t-87 -16q-32 0 -65 13.5zM284 51
q22 16 40 44v135h-30q-74 0 -117 -27.5t-43 -72.5q0 -46 27.5 -70.5t67.5 -24.5q33 0 55 16zM209.5 -143.5q-13.5 13.5 -13.5 32.5q0 18 13.5 31t31.5 13q19 0 31.5 -13t12.5 -31q0 -19 -13 -32.5t-31 -13.5t-31.5 13.5zM111 591l20 15q20 -20 45 -30t65 -10t65 10t45 30
l20 -15q-44 -80 -130 -80t-130 80z" />
    <glyph glyph-name="uni1EB8" unicode="&#x1eb8;" horiz-adv-x="590" 
d="M106 540q0 51 -14 75.5t-56 24.5h-20v20h426q85 0 85 -80v-75h-20q0 115 -125 115h-186v-260h270v-40h-270v-280h175q69 0 108 25t62 85l20 -5l-35 -95q-18 -50 -75 -50h-345v540zM263.5 -143.5q-13.5 13.5 -13.5 32.5q0 18 13.5 31t31.5 13q19 0 31.5 -13t12.5 -31
q0 -19 -13 -32.5t-31 -13.5t-31.5 13.5z" />
    <glyph glyph-name="uni1EB9" unicode="&#x1eb9;" horiz-adv-x="488" 
d="M140 22.5q-47 32.5 -71 88t-24 124.5q0 68 24 124t69.5 88.5t106.5 32.5q101 0 150.5 -56.5t49.5 -163.5l-2 -40h-303q0 -84 36 -137t99 -53q47 0 79.5 20t60.5 60l20 -15q-33 -55 -77 -80t-103 -25q-68 0 -115 32.5zM350 260q0 88 -26 134t-79 46q-30 0 -54 -23.5
t-37.5 -64.5t-13.5 -92h210zM212.5 -143.5q-13.5 13.5 -13.5 32.5q0 18 13.5 31t31.5 13q19 0 31.5 -13t12.5 -31q0 -19 -13 -32.5t-31 -13.5t-31.5 13.5z" />
    <glyph glyph-name="uni1EBA" unicode="&#x1eba;" horiz-adv-x="590" 
d="M106 540q0 51 -14 75.5t-56 24.5h-20v20h426q85 0 85 -80v-75h-20q0 115 -125 115h-186v-260h270v-40h-270v-280h175q69 0 108 25t62 85l20 -5l-35 -95q-18 -50 -75 -50h-345v540zM302.5 745.5q5.5 14.5 15.5 31.5q5 9 9 17.5t4 16.5q0 14 -8.5 22t-24.5 8
q-20 0 -31.5 -11t-16.5 -39l-42 1q0 40 24.5 63t65.5 23q33 0 58.5 -14.5t25.5 -42.5q0 -13 -6 -23.5t-18 -24.5q-14 -16 -22 -29.5t-9 -32.5h-31q1 20 6.5 34.5z" />
    <glyph glyph-name="uni1EBB" unicode="&#x1ebb;" horiz-adv-x="488" 
d="M140 22.5q-47 32.5 -71 88t-24 124.5q0 68 24 124t69.5 88.5t106.5 32.5q101 0 150.5 -56.5t49.5 -163.5l-2 -40h-303q0 -84 36 -137t99 -53q47 0 79.5 20t60.5 60l20 -15q-33 -55 -77 -80t-103 -25q-68 0 -115 32.5zM350 260q0 88 -26 134t-79 46q-30 0 -54 -23.5
t-37.5 -64.5t-13.5 -92h210zM251.5 555.5q5.5 14.5 15.5 31.5q5 9 9 17.5t4 16.5q0 14 -8.5 22t-24.5 8q-20 0 -31.5 -11t-16.5 -39l-42 1q0 40 24.5 63t65.5 23q33 0 58.5 -14.5t25.5 -42.5q0 -13 -6 -23.5t-18 -24.5q-14 -16 -22 -29.5t-9 -32.5h-31q1 20 6.5 34.5z" />
    <glyph glyph-name="uni1EBC" unicode="&#x1ebc;" horiz-adv-x="590" 
d="M106 540q0 51 -14 75.5t-56 24.5h-20v20h426q85 0 85 -80v-75h-20q0 115 -125 115h-186v-260h270v-40h-270v-280h175q69 0 108 25t62 85l20 -5l-35 -95q-18 -50 -75 -50h-345v540zM196.5 819.5q14.5 21.5 45.5 21.5q15 0 27.5 -5.5t27.5 -15.5q3 -2 13 -7.5t19 -8.5
t18 -3q11 0 20.5 14t9.5 26h30q0 -52 -14.5 -73.5t-45.5 -21.5q-14 0 -26.5 5t-27.5 15q-17 10 -27.5 15t-23.5 5q-11 0 -20.5 -14t-9.5 -26h-30q0 52 14.5 73.5z" />
    <glyph glyph-name="uni1EBD" unicode="&#x1ebd;" horiz-adv-x="488" 
d="M140 22.5q-47 32.5 -71 88t-24 124.5q0 68 24 124t69.5 88.5t106.5 32.5q101 0 150.5 -56.5t49.5 -163.5l-2 -40h-303q0 -84 36 -137t99 -53q47 0 79.5 20t60.5 60l20 -15q-33 -55 -77 -80t-103 -25q-68 0 -115 32.5zM350 260q0 88 -26 134t-79 46q-30 0 -54 -23.5
t-37.5 -64.5t-13.5 -92h210zM145.5 629.5q14.5 21.5 45.5 21.5q15 0 27.5 -5.5t27.5 -15.5q3 -2 13 -7.5t19 -8.5t18 -3q11 0 20.5 14t9.5 26h30q0 -52 -14.5 -73.5t-45.5 -21.5q-14 0 -26.5 5t-27.5 15q-17 10 -27.5 15t-23.5 5q-11 0 -20.5 -14t-9.5 -26h-30
q0 52 14.5 73.5z" />
    <glyph glyph-name="uni1EBE" unicode="&#x1ebe;" horiz-adv-x="590" 
d="M106 540q0 51 -14 75.5t-56 24.5h-20v20h426q85 0 85 -80v-75h-20q0 115 -125 115h-186v-260h270v-40h-270v-280h175q69 0 108 25t62 85l20 -5l-35 -95q-18 -50 -75 -50h-345v540zM160 710l80 115h110l80 -115h-50l-85 80l-85 -80h-50zM420 767l40 130h95l-95 -130h-40z
" />
    <glyph glyph-name="uni1EBF" unicode="&#x1ebf;" horiz-adv-x="488" 
d="M140 22.5q-47 32.5 -71 88t-24 124.5q0 68 24 124t69.5 88.5t106.5 32.5q101 0 150.5 -56.5t49.5 -163.5l-2 -40h-303q0 -84 36 -137t99 -53q47 0 79.5 20t60.5 60l20 -15q-33 -55 -77 -80t-103 -25q-68 0 -115 32.5zM350 260q0 88 -26 134t-79 46q-30 0 -54 -23.5
t-37.5 -64.5t-13.5 -92h210zM109 520l80 115h110l80 -115h-50l-85 80l-85 -80h-50zM369 577l40 130h95l-95 -130h-40z" />
    <glyph glyph-name="uni1EC0" unicode="&#x1ec0;" horiz-adv-x="590" 
d="M106 540q0 51 -14 75.5t-56 24.5h-20v20h426q85 0 85 -80v-75h-20q0 115 -125 115h-186v-260h270v-40h-270v-280h175q69 0 108 25t62 85l20 -5l-35 -95q-18 -50 -75 -50h-345v540zM160 710l80 115h110l80 -115h-50l-85 80l-85 -80h-50zM423 793l-95 130h95l40 -130h-40z
" />
    <glyph glyph-name="uni1EC1" unicode="&#x1ec1;" horiz-adv-x="488" 
d="M140 22.5q-47 32.5 -71 88t-24 124.5q0 68 24 124t69.5 88.5t106.5 32.5q101 0 150.5 -56.5t49.5 -163.5l-2 -40h-303q0 -84 36 -137t99 -53q47 0 79.5 20t60.5 60l20 -15q-33 -55 -77 -80t-103 -25q-68 0 -115 32.5zM350 260q0 88 -26 134t-79 46q-30 0 -54 -23.5
t-37.5 -64.5t-13.5 -92h210zM109 520l80 115h110l80 -115h-50l-85 80l-85 -80h-50zM372 603l-95 130h95l40 -130h-40z" />
    <glyph glyph-name="uni1EC2" unicode="&#x1ec2;" horiz-adv-x="590" 
d="M106 540q0 51 -14 75.5t-56 24.5h-20v20h426q85 0 85 -80v-75h-20q0 115 -125 115h-186v-260h270v-40h-270v-280h175q69 0 108 25t62 85l20 -5l-35 -95q-18 -50 -75 -50h-345v540zM160 710l80 115h110l80 -115h-50l-85 80l-85 -80h-50zM417.5 832.5q5.5 14.5 15.5 31.5
q5 9 9 17.5t4 16.5q0 14 -8.5 22t-24.5 8q-20 0 -31.5 -11t-16.5 -39l-42 1q0 40 24.5 63t65.5 23q33 0 58.5 -14.5t25.5 -42.5q0 -13 -6 -23.5t-18 -24.5q-14 -16 -22 -29.5t-9 -32.5h-31q1 20 6.5 34.5z" />
    <glyph glyph-name="uni1EC3" unicode="&#x1ec3;" horiz-adv-x="488" 
d="M140 22.5q-47 32.5 -71 88t-24 124.5q0 68 24 124t69.5 88.5t106.5 32.5q101 0 150.5 -56.5t49.5 -163.5l-2 -40h-303q0 -84 36 -137t99 -53q47 0 79.5 20t60.5 60l20 -15q-33 -55 -77 -80t-103 -25q-68 0 -115 32.5zM350 260q0 88 -26 134t-79 46q-30 0 -54 -23.5
t-37.5 -64.5t-13.5 -92h210zM109 520l80 115h110l80 -115h-50l-85 80l-85 -80h-50zM366.5 642.5q5.5 14.5 15.5 31.5q5 9 9 17.5t4 16.5q0 14 -8.5 22t-24.5 8q-20 0 -31.5 -11t-16.5 -39l-42 1q0 40 24.5 63t65.5 23q33 0 58.5 -14.5t25.5 -42.5q0 -13 -6 -23.5t-18 -24.5
q-14 -16 -22 -29.5t-9 -32.5h-31q1 20 6.5 34.5z" />
    <glyph glyph-name="uni1EC4" unicode="&#x1ec4;" horiz-adv-x="590" 
d="M106 540q0 51 -14 75.5t-56 24.5h-20v20h426q85 0 85 -80v-75h-20q0 115 -125 115h-186v-260h270v-40h-270v-280h175q69 0 108 25t62 85l20 -5l-35 -95q-18 -50 -75 -50h-345v540zM160 710l80 115h110l80 -115h-50l-85 80l-85 -80h-50zM196.5 931.5q14.5 21.5 45.5 21.5
q15 0 27.5 -5.5t27.5 -15.5q3 -2 13 -7.5t19 -8.5t18 -3q11 0 20.5 14t9.5 26h30q0 -52 -14.5 -73.5t-45.5 -21.5q-14 0 -26.5 5t-27.5 15q-17 10 -27.5 15t-23.5 5q-11 0 -20.5 -14t-9.5 -26h-30q0 52 14.5 73.5z" />
    <glyph glyph-name="uni1EC5" unicode="&#x1ec5;" horiz-adv-x="488" 
d="M140 22.5q-47 32.5 -71 88t-24 124.5q0 68 24 124t69.5 88.5t106.5 32.5q101 0 150.5 -56.5t49.5 -163.5l-2 -40h-303q0 -84 36 -137t99 -53q47 0 79.5 20t60.5 60l20 -15q-33 -55 -77 -80t-103 -25q-68 0 -115 32.5zM350 260q0 88 -26 134t-79 46q-30 0 -54 -23.5
t-37.5 -64.5t-13.5 -92h210zM109 520l80 115h110l80 -115h-50l-85 80l-85 -80h-50zM145.5 741.5q14.5 21.5 45.5 21.5q15 0 27.5 -5.5t27.5 -15.5q3 -2 13 -7.5t19 -8.5t18 -3q11 0 20.5 14t9.5 26h30q0 -52 -14.5 -73.5t-45.5 -21.5q-14 0 -26.5 5t-27.5 15
q-17 10 -27.5 15t-23.5 5q-11 0 -20.5 -14t-9.5 -26h-30q0 52 14.5 73.5z" />
    <glyph glyph-name="uni1EC6" unicode="&#x1ec6;" horiz-adv-x="590" 
d="M106 540q0 51 -14 75.5t-56 24.5h-20v20h426q85 0 85 -80v-75h-20q0 115 -125 115h-186v-260h270v-40h-270v-280h175q69 0 108 25t62 85l20 -5l-35 -95q-18 -50 -75 -50h-345v540zM263.5 -143.5q-13.5 13.5 -13.5 32.5q0 18 13.5 31t31.5 13q19 0 31.5 -13t12.5 -31
q0 -19 -13 -32.5t-31 -13.5t-31.5 13.5zM160 710l80 115h110l80 -115h-50l-85 80l-85 -80h-50z" />
    <glyph glyph-name="uni1EC7" unicode="&#x1ec7;" horiz-adv-x="488" 
d="M140 22.5q-47 32.5 -71 88t-24 124.5q0 68 24 124t69.5 88.5t106.5 32.5q101 0 150.5 -56.5t49.5 -163.5l-2 -40h-303q0 -84 36 -137t99 -53q47 0 79.5 20t60.5 60l20 -15q-33 -55 -77 -80t-103 -25q-68 0 -115 32.5zM350 260q0 88 -26 134t-79 46q-30 0 -54 -23.5
t-37.5 -64.5t-13.5 -92h210zM212.5 -143.5q-13.5 13.5 -13.5 32.5q0 18 13.5 31t31.5 13q19 0 31.5 -13t12.5 -31q0 -19 -13 -32.5t-31 -13.5t-31.5 13.5zM109 520l80 115h110l80 -115h-50l-85 80l-85 -80h-50z" />
    <glyph glyph-name="uni1EC8" unicode="&#x1ec8;" horiz-adv-x="285" 
d="M123.5 9.5q-18.5 9.5 -26.5 34.5t-8 76v540h90v-540q0 -51 14 -75.5t56 -24.5h20v-20h-90q-37 0 -55.5 9.5zM150.5 745.5q5.5 14.5 15.5 31.5q5 9 9 17.5t4 16.5q0 14 -8.5 22t-24.5 8q-20 0 -31.5 -11t-16.5 -39l-42 1q0 40 24.5 63t65.5 23q33 0 58.5 -14.5t25.5 -42.5
q0 -13 -6 -23.5t-18 -24.5q-14 -16 -22 -29.5t-9 -32.5h-31q1 20 6.5 34.5z" />
    <glyph glyph-name="uni1EC9" unicode="&#x1ec9;" horiz-adv-x="246" 
d="M87 350q0 51 -14 75.5t-56 24.5h-20v20h90q37 0 55.5 -9.5t26.5 -34.5t8 -76v-350h-90v350zM130.5 555.5q5.5 14.5 15.5 31.5q5 9 9 17.5t4 16.5q0 14 -8.5 22t-24.5 8q-20 0 -31.5 -11t-16.5 -39l-42 1q0 40 24.5 63t65.5 23q33 0 58.5 -14.5t25.5 -42.5q0 -13 -6 -23.5
t-18 -24.5q-14 -16 -22 -29.5t-9 -32.5h-31q1 20 6.5 34.5z" />
    <glyph glyph-name="uni1ECA" unicode="&#x1eca;" horiz-adv-x="285" 
d="M123.5 9.5q-18.5 9.5 -26.5 34.5t-8 76v540h90v-540q0 -51 14 -75.5t56 -24.5h20v-20h-90q-37 0 -55.5 9.5zM111.5 -143.5q-13.5 13.5 -13.5 32.5q0 18 13.5 31t31.5 13q19 0 31.5 -13t12.5 -31q0 -19 -13 -32.5t-31 -13.5t-31.5 13.5z" />
    <glyph glyph-name="uni1ECB" unicode="&#x1ecb;" horiz-adv-x="246" 
d="M85.5 549q-16.5 19 -16.5 45q0 21 12.5 33t33.5 12q23 0 39.5 -19t16.5 -45q0 -21 -12.5 -33t-33.5 -12q-23 0 -39.5 19zM87 350q0 51 -14 75.5t-56 24.5h-20v20h90q37 0 55.5 -9.5t26.5 -34.5t8 -76v-350h-90v350zM91.5 -143.5q-13.5 13.5 -13.5 32.5q0 18 13.5 31
t31.5 13q19 0 31.5 -13t12.5 -31q0 -19 -13 -32.5t-31 -13.5t-31.5 13.5z" />
    <glyph glyph-name="uni1ECC" unicode="&#x1ecc;" horiz-adv-x="712" 
d="M192.5 26q-70.5 46 -108.5 126t-38 178t38 178t108.5 126t163.5 46t163.5 -46t108.5 -126t38 -178t-38 -178t-108.5 -126t-163.5 -46t-163.5 46zM468.5 58q47.5 38 72.5 107.5t25 164.5t-25 164.5t-72.5 107.5t-112.5 38t-112.5 -38t-72.5 -107.5t-25 -164.5t25 -164.5
t72.5 -107.5t112.5 -38t112.5 38zM324.5 -143.5q-13.5 13.5 -13.5 32.5q0 18 13.5 31t31.5 13q19 0 31.5 -13t12.5 -31q0 -19 -13 -32.5t-31 -13.5t-31.5 13.5z" />
    <glyph glyph-name="uni1ECD" unicode="&#x1ecd;" 
d="M147 22.5q-50 32.5 -76 88.5t-26 124t26 124t76 88.5t118 32.5t118 -32.5t76 -88.5t26 -124t-26 -124t-76 -88.5t-118 -32.5t-118 32.5zM330.5 57q28.5 27 44 74t15.5 104t-15.5 104t-44 74t-65.5 27t-65.5 -27t-44 -74t-15.5 -104t15.5 -104t44 -74t65.5 -27t65.5 27z
M233.5 -143.5q-13.5 13.5 -13.5 32.5q0 18 13.5 31t31.5 13q19 0 31.5 -13t12.5 -31q0 -19 -13 -32.5t-31 -13.5t-31.5 13.5z" />
    <glyph glyph-name="uni1ECE" unicode="&#x1ece;" horiz-adv-x="712" 
d="M192.5 26q-70.5 46 -108.5 126t-38 178t38 178t108.5 126t163.5 46t163.5 -46t108.5 -126t38 -178t-38 -178t-108.5 -126t-163.5 -46t-163.5 46zM468.5 58q47.5 38 72.5 107.5t25 164.5t-25 164.5t-72.5 107.5t-112.5 38t-112.5 -38t-72.5 -107.5t-25 -164.5t25 -164.5
t72.5 -107.5t112.5 -38t112.5 38zM363.5 745.5q5.5 14.5 15.5 31.5q5 9 9 17.5t4 16.5q0 14 -8.5 22t-24.5 8q-20 0 -31.5 -11t-16.5 -39l-42 1q0 40 24.5 63t65.5 23q33 0 58.5 -14.5t25.5 -42.5q0 -13 -6 -23.5t-18 -24.5q-14 -16 -22 -29.5t-9 -32.5h-31q1 20 6.5 34.5z
" />
    <glyph glyph-name="uni1ECF" unicode="&#x1ecf;" 
d="M147 22.5q-50 32.5 -76 88.5t-26 124t26 124t76 88.5t118 32.5t118 -32.5t76 -88.5t26 -124t-26 -124t-76 -88.5t-118 -32.5t-118 32.5zM330.5 57q28.5 27 44 74t15.5 104t-15.5 104t-44 74t-65.5 27t-65.5 -27t-44 -74t-15.5 -104t15.5 -104t44 -74t65.5 -27t65.5 27z
M272.5 555.5q5.5 14.5 15.5 31.5q5 9 9 17.5t4 16.5q0 14 -8.5 22t-24.5 8q-20 0 -31.5 -11t-16.5 -39l-42 1q0 40 24.5 63t65.5 23q33 0 58.5 -14.5t25.5 -42.5q0 -13 -6 -23.5t-18 -24.5q-14 -16 -22 -29.5t-9 -32.5h-31q1 20 6.5 34.5z" />
    <glyph glyph-name="uni1ED0" unicode="&#x1ed0;" horiz-adv-x="712" 
d="M192.5 26q-70.5 46 -108.5 126t-38 178t38 178t108.5 126t163.5 46t163.5 -46t108.5 -126t38 -178t-38 -178t-108.5 -126t-163.5 -46t-163.5 46zM468.5 58q47.5 38 72.5 107.5t25 164.5t-25 164.5t-72.5 107.5t-112.5 38t-112.5 -38t-72.5 -107.5t-25 -164.5t25 -164.5
t72.5 -107.5t112.5 -38t112.5 38zM221 710l80 115h110l80 -115h-50l-85 80l-85 -80h-50zM481 767l40 130h95l-95 -130h-40z" />
    <glyph glyph-name="uni1ED1" unicode="&#x1ed1;" 
d="M147 22.5q-50 32.5 -76 88.5t-26 124t26 124t76 88.5t118 32.5t118 -32.5t76 -88.5t26 -124t-26 -124t-76 -88.5t-118 -32.5t-118 32.5zM330.5 57q28.5 27 44 74t15.5 104t-15.5 104t-44 74t-65.5 27t-65.5 -27t-44 -74t-15.5 -104t15.5 -104t44 -74t65.5 -27t65.5 27z
M130 520l80 115h110l80 -115h-50l-85 80l-85 -80h-50zM390 577l40 130h95l-95 -130h-40z" />
    <glyph glyph-name="uni1ED2" unicode="&#x1ed2;" horiz-adv-x="712" 
d="M192.5 26q-70.5 46 -108.5 126t-38 178t38 178t108.5 126t163.5 46t163.5 -46t108.5 -126t38 -178t-38 -178t-108.5 -126t-163.5 -46t-163.5 46zM468.5 58q47.5 38 72.5 107.5t25 164.5t-25 164.5t-72.5 107.5t-112.5 38t-112.5 -38t-72.5 -107.5t-25 -164.5t25 -164.5
t72.5 -107.5t112.5 -38t112.5 38zM221 710l80 115h110l80 -115h-50l-85 80l-85 -80h-50zM484 793l-95 130h95l40 -130h-40z" />
    <glyph glyph-name="uni1ED3" unicode="&#x1ed3;" 
d="M147 22.5q-50 32.5 -76 88.5t-26 124t26 124t76 88.5t118 32.5t118 -32.5t76 -88.5t26 -124t-26 -124t-76 -88.5t-118 -32.5t-118 32.5zM330.5 57q28.5 27 44 74t15.5 104t-15.5 104t-44 74t-65.5 27t-65.5 -27t-44 -74t-15.5 -104t15.5 -104t44 -74t65.5 -27t65.5 27z
M130 520l80 115h110l80 -115h-50l-85 80l-85 -80h-50zM393 603l-95 130h95l40 -130h-40z" />
    <glyph glyph-name="uni1ED4" unicode="&#x1ed4;" horiz-adv-x="712" 
d="M192.5 26q-70.5 46 -108.5 126t-38 178t38 178t108.5 126t163.5 46t163.5 -46t108.5 -126t38 -178t-38 -178t-108.5 -126t-163.5 -46t-163.5 46zM468.5 58q47.5 38 72.5 107.5t25 164.5t-25 164.5t-72.5 107.5t-112.5 38t-112.5 -38t-72.5 -107.5t-25 -164.5t25 -164.5
t72.5 -107.5t112.5 -38t112.5 38zM221 710l80 115h110l80 -115h-50l-85 80l-85 -80h-50zM478.5 832.5q5.5 14.5 15.5 31.5q5 9 9 17.5t4 16.5q0 14 -8.5 22t-24.5 8q-20 0 -31.5 -11t-16.5 -39l-42 1q0 40 24.5 63t65.5 23q33 0 58.5 -14.5t25.5 -42.5q0 -13 -6 -23.5
t-18 -24.5q-14 -16 -22 -29.5t-9 -32.5h-31q1 20 6.5 34.5z" />
    <glyph glyph-name="uni1ED5" unicode="&#x1ed5;" 
d="M147 22.5q-50 32.5 -76 88.5t-26 124t26 124t76 88.5t118 32.5t118 -32.5t76 -88.5t26 -124t-26 -124t-76 -88.5t-118 -32.5t-118 32.5zM330.5 57q28.5 27 44 74t15.5 104t-15.5 104t-44 74t-65.5 27t-65.5 -27t-44 -74t-15.5 -104t15.5 -104t44 -74t65.5 -27t65.5 27z
M130 520l80 115h110l80 -115h-50l-85 80l-85 -80h-50zM387.5 642.5q5.5 14.5 15.5 31.5q5 9 9 17.5t4 16.5q0 14 -8.5 22t-24.5 8q-20 0 -31.5 -11t-16.5 -39l-42 1q0 40 24.5 63t65.5 23q33 0 58.5 -14.5t25.5 -42.5q0 -13 -6 -23.5t-18 -24.5q-14 -16 -22 -29.5t-9 -32.5
h-31q1 20 6.5 34.5z" />
    <glyph glyph-name="uni1ED6" unicode="&#x1ed6;" horiz-adv-x="712" 
d="M192.5 26q-70.5 46 -108.5 126t-38 178t38 178t108.5 126t163.5 46t163.5 -46t108.5 -126t38 -178t-38 -178t-108.5 -126t-163.5 -46t-163.5 46zM468.5 58q47.5 38 72.5 107.5t25 164.5t-25 164.5t-72.5 107.5t-112.5 38t-112.5 -38t-72.5 -107.5t-25 -164.5t25 -164.5
t72.5 -107.5t112.5 -38t112.5 38zM221 710l80 115h110l80 -115h-50l-85 80l-85 -80h-50zM257.5 931.5q14.5 21.5 45.5 21.5q15 0 27.5 -5.5t27.5 -15.5q3 -2 13 -7.5t19 -8.5t18 -3q11 0 20.5 14t9.5 26h30q0 -52 -14.5 -73.5t-45.5 -21.5q-14 0 -26.5 5t-27.5 15
q-17 10 -27.5 15t-23.5 5q-11 0 -20.5 -14t-9.5 -26h-30q0 52 14.5 73.5z" />
    <glyph glyph-name="uni1ED7" unicode="&#x1ed7;" 
d="M147 22.5q-50 32.5 -76 88.5t-26 124t26 124t76 88.5t118 32.5t118 -32.5t76 -88.5t26 -124t-26 -124t-76 -88.5t-118 -32.5t-118 32.5zM330.5 57q28.5 27 44 74t15.5 104t-15.5 104t-44 74t-65.5 27t-65.5 -27t-44 -74t-15.5 -104t15.5 -104t44 -74t65.5 -27t65.5 27z
M130 520l80 115h110l80 -115h-50l-85 80l-85 -80h-50zM166.5 741.5q14.5 21.5 45.5 21.5q15 0 27.5 -5.5t27.5 -15.5q3 -2 13 -7.5t19 -8.5t18 -3q11 0 20.5 14t9.5 26h30q0 -52 -14.5 -73.5t-45.5 -21.5q-14 0 -26.5 5t-27.5 15q-17 10 -27.5 15t-23.5 5q-11 0 -20.5 -14
t-9.5 -26h-30q0 52 14.5 73.5z" />
    <glyph glyph-name="uni1ED8" unicode="&#x1ed8;" horiz-adv-x="712" 
d="M192.5 26q-70.5 46 -108.5 126t-38 178t38 178t108.5 126t163.5 46t163.5 -46t108.5 -126t38 -178t-38 -178t-108.5 -126t-163.5 -46t-163.5 46zM468.5 58q47.5 38 72.5 107.5t25 164.5t-25 164.5t-72.5 107.5t-112.5 38t-112.5 -38t-72.5 -107.5t-25 -164.5t25 -164.5
t72.5 -107.5t112.5 -38t112.5 38zM324.5 -143.5q-13.5 13.5 -13.5 32.5q0 18 13.5 31t31.5 13q19 0 31.5 -13t12.5 -31q0 -19 -13 -32.5t-31 -13.5t-31.5 13.5zM221 710l80 115h110l80 -115h-50l-85 80l-85 -80h-50z" />
    <glyph glyph-name="uni1ED9" unicode="&#x1ed9;" 
d="M147 22.5q-50 32.5 -76 88.5t-26 124t26 124t76 88.5t118 32.5t118 -32.5t76 -88.5t26 -124t-26 -124t-76 -88.5t-118 -32.5t-118 32.5zM330.5 57q28.5 27 44 74t15.5 104t-15.5 104t-44 74t-65.5 27t-65.5 -27t-44 -74t-15.5 -104t15.5 -104t44 -74t65.5 -27t65.5 27z
M233.5 -143.5q-13.5 13.5 -13.5 32.5q0 18 13.5 31t31.5 13q19 0 31.5 -13t12.5 -31q0 -19 -13 -32.5t-31 -13.5t-31.5 13.5zM130 520l80 115h110l80 -115h-50l-85 80l-85 -80h-50z" />
    <glyph glyph-name="uni1EDA" unicode="&#x1eda;" horiz-adv-x="712" 
d="M625.5 513q40.5 -82 40.5 -183q0 -98 -38 -178t-108.5 -126t-163.5 -46t-163.5 46t-108.5 126t-38 178t38 178t108.5 126t163.5 46q60 0 111 -20q46 3 69 33.5t23 70.5h57q0 -105 -104 -126q73 -43 113.5 -125zM468.5 58q47.5 38 72.5 107.5t25 164.5t-25 164.5
t-72.5 107.5t-112.5 38t-112.5 -38t-72.5 -107.5t-25 -164.5t25 -164.5t72.5 -107.5t112.5 -38t112.5 38zM328 705l40 130h95l-95 -130h-40z" />
    <glyph glyph-name="uni1EDB" unicode="&#x1edb;" 
d="M457.5 361.5q27.5 -56.5 27.5 -126.5q0 -68 -26 -124t-76 -88.5t-118 -32.5t-118 32.5t-76 88.5t-26 124t26 124t76 88.5t118 32.5q38 0 68 -10q46 3 69 33.5t23 70.5h57q0 -104 -102 -125q50 -31 77.5 -87.5zM330.5 57q28.5 27 44 74t15.5 104t-15.5 104t-44 74
t-65.5 27t-65.5 -27t-44 -74t-15.5 -104t15.5 -104t44 -74t65.5 -27t65.5 27zM237 515l40 130h95l-95 -130h-40z" />
    <glyph glyph-name="uni1EDC" unicode="&#x1edc;" horiz-adv-x="712" 
d="M625.5 513q40.5 -82 40.5 -183q0 -98 -38 -178t-108.5 -126t-163.5 -46t-163.5 46t-108.5 126t-38 178t38 178t108.5 126t163.5 46q60 0 111 -20q46 3 69 33.5t23 70.5h57q0 -105 -104 -126q73 -43 113.5 -125zM468.5 58q47.5 38 72.5 107.5t25 164.5t-25 164.5
t-72.5 107.5t-112.5 38t-112.5 -38t-72.5 -107.5t-25 -164.5t25 -164.5t72.5 -107.5t112.5 -38t112.5 38zM346 705l-95 130h95l40 -130h-40z" />
    <glyph glyph-name="uni1EDD" unicode="&#x1edd;" 
d="M457.5 361.5q27.5 -56.5 27.5 -126.5q0 -68 -26 -124t-76 -88.5t-118 -32.5t-118 32.5t-76 88.5t-26 124t26 124t76 88.5t118 32.5q38 0 68 -10q46 3 69 33.5t23 70.5h57q0 -104 -102 -125q50 -31 77.5 -87.5zM330.5 57q28.5 27 44 74t15.5 104t-15.5 104t-44 74
t-65.5 27t-65.5 -27t-44 -74t-15.5 -104t15.5 -104t44 -74t65.5 -27t65.5 27zM255 515l-95 130h95l40 -130h-40z" />
    <glyph glyph-name="uni1EDE" unicode="&#x1ede;" horiz-adv-x="712" 
d="M625.5 513q40.5 -82 40.5 -183q0 -98 -38 -178t-108.5 -126t-163.5 -46t-163.5 46t-108.5 126t-38 178t38 178t108.5 126t163.5 46q60 0 111 -20q46 3 69 33.5t23 70.5h57q0 -105 -104 -126q73 -43 113.5 -125zM468.5 58q47.5 38 72.5 107.5t25 164.5t-25 164.5
t-72.5 107.5t-112.5 38t-112.5 -38t-72.5 -107.5t-25 -164.5t25 -164.5t72.5 -107.5t112.5 -38t112.5 38zM363.5 745.5q5.5 14.5 15.5 31.5q5 9 9 17.5t4 16.5q0 14 -8.5 22t-24.5 8q-20 0 -31.5 -11t-16.5 -39l-42 1q0 40 24.5 63t65.5 23q33 0 58.5 -14.5t25.5 -42.5
q0 -13 -6 -23.5t-18 -24.5q-14 -16 -22 -29.5t-9 -32.5h-31q1 20 6.5 34.5z" />
    <glyph glyph-name="uni1EDF" unicode="&#x1edf;" 
d="M457.5 361.5q27.5 -56.5 27.5 -126.5q0 -68 -26 -124t-76 -88.5t-118 -32.5t-118 32.5t-76 88.5t-26 124t26 124t76 88.5t118 32.5q38 0 68 -10q46 3 69 33.5t23 70.5h57q0 -104 -102 -125q50 -31 77.5 -87.5zM330.5 57q28.5 27 44 74t15.5 104t-15.5 104t-44 74
t-65.5 27t-65.5 -27t-44 -74t-15.5 -104t15.5 -104t44 -74t65.5 -27t65.5 27zM272.5 555.5q5.5 14.5 15.5 31.5q5 9 9 17.5t4 16.5q0 14 -8.5 22t-24.5 8q-20 0 -31.5 -11t-16.5 -39l-42 1q0 40 24.5 63t65.5 23q33 0 58.5 -14.5t25.5 -42.5q0 -13 -6 -23.5t-18 -24.5
q-14 -16 -22 -29.5t-9 -32.5h-31q1 20 6.5 34.5z" />
    <glyph glyph-name="uni1EE0" unicode="&#x1ee0;" horiz-adv-x="712" 
d="M625.5 513q40.5 -82 40.5 -183q0 -98 -38 -178t-108.5 -126t-163.5 -46t-163.5 46t-108.5 126t-38 178t38 178t108.5 126t163.5 46q60 0 111 -20q46 3 69 33.5t23 70.5h57q0 -105 -104 -126q73 -43 113.5 -125zM468.5 58q47.5 38 72.5 107.5t25 164.5t-25 164.5
t-72.5 107.5t-112.5 38t-112.5 -38t-72.5 -107.5t-25 -164.5t25 -164.5t72.5 -107.5t112.5 -38t112.5 38zM257.5 819.5q14.5 21.5 45.5 21.5q15 0 27.5 -5.5t27.5 -15.5q3 -2 13 -7.5t19 -8.5t18 -3q11 0 20.5 14t9.5 26h30q0 -52 -14.5 -73.5t-45.5 -21.5q-14 0 -26.5 5
t-27.5 15q-17 10 -27.5 15t-23.5 5q-11 0 -20.5 -14t-9.5 -26h-30q0 52 14.5 73.5z" />
    <glyph glyph-name="uni1EE1" unicode="&#x1ee1;" 
d="M457.5 361.5q27.5 -56.5 27.5 -126.5q0 -68 -26 -124t-76 -88.5t-118 -32.5t-118 32.5t-76 88.5t-26 124t26 124t76 88.5t118 32.5q38 0 68 -10q46 3 69 33.5t23 70.5h57q0 -104 -102 -125q50 -31 77.5 -87.5zM330.5 57q28.5 27 44 74t15.5 104t-15.5 104t-44 74
t-65.5 27t-65.5 -27t-44 -74t-15.5 -104t15.5 -104t44 -74t65.5 -27t65.5 27zM166.5 629.5q14.5 21.5 45.5 21.5q15 0 27.5 -5.5t27.5 -15.5q3 -2 13 -7.5t19 -8.5t18 -3q11 0 20.5 14t9.5 26h30q0 -52 -14.5 -73.5t-45.5 -21.5q-14 0 -26.5 5t-27.5 15q-17 10 -27.5 15
t-23.5 5q-11 0 -20.5 -14t-9.5 -26h-30q0 52 14.5 73.5z" />
    <glyph glyph-name="uni1EE2" unicode="&#x1ee2;" horiz-adv-x="712" 
d="M625.5 513q40.5 -82 40.5 -183q0 -98 -38 -178t-108.5 -126t-163.5 -46t-163.5 46t-108.5 126t-38 178t38 178t108.5 126t163.5 46q60 0 111 -20q46 3 69 33.5t23 70.5h57q0 -105 -104 -126q73 -43 113.5 -125zM468.5 58q47.5 38 72.5 107.5t25 164.5t-25 164.5
t-72.5 107.5t-112.5 38t-112.5 -38t-72.5 -107.5t-25 -164.5t25 -164.5t72.5 -107.5t112.5 -38t112.5 38zM324.5 -143.5q-13.5 13.5 -13.5 32.5q0 18 13.5 31t31.5 13q19 0 31.5 -13t12.5 -31q0 -19 -13 -32.5t-31 -13.5t-31.5 13.5z" />
    <glyph glyph-name="uni1EE3" unicode="&#x1ee3;" 
d="M457.5 361.5q27.5 -56.5 27.5 -126.5q0 -68 -26 -124t-76 -88.5t-118 -32.5t-118 32.5t-76 88.5t-26 124t26 124t76 88.5t118 32.5q38 0 68 -10q46 3 69 33.5t23 70.5h57q0 -104 -102 -125q50 -31 77.5 -87.5zM330.5 57q28.5 27 44 74t15.5 104t-15.5 104t-44 74
t-65.5 27t-65.5 -27t-44 -74t-15.5 -104t15.5 -104t44 -74t65.5 -27t65.5 27zM233.5 -143.5q-13.5 13.5 -13.5 32.5q0 18 13.5 31t31.5 13q19 0 31.5 -13t12.5 -31q0 -19 -13 -32.5t-31 -13.5t-31.5 13.5z" />
    <glyph glyph-name="uni1EE4" unicode="&#x1ee4;" horiz-adv-x="687" 
d="M202 22.5q-56 32.5 -79.5 96.5t-23.5 166v255q0 51 -14 75.5t-56 24.5h-20v20h90q37 0 55.5 -9.5t26.5 -34.5t8 -76v-285q0 -111 41 -168t136 -57q76 0 120.5 27t63.5 82t19 146v375h40v-375q0 -104 -22 -167.5t-77.5 -95.5t-155.5 -32q-96 0 -152 32.5zM312.5 -143.5
q-13.5 13.5 -13.5 32.5q0 18 13.5 31t31.5 13q19 0 31.5 -13t12.5 -31q0 -19 -13 -32.5t-31 -13.5t-31.5 13.5z" />
    <glyph glyph-name="uni1EE5" unicode="&#x1ee5;" horiz-adv-x="535" 
d="M120.5 30q-47.5 40 -47.5 140v180q0 51 -14 75.5t-56 24.5h-10v20h80q37 0 55.5 -9.5t26.5 -34.5t8 -76v-180q0 -70 31.5 -102.5t78.5 -32.5q53 0 100 53v382h90v-470h-50l-35 40h-5q-21 -21 -54.5 -35.5t-75.5 -14.5q-75 0 -122.5 40zM236.5 -143.5
q-13.5 13.5 -13.5 32.5q0 18 13.5 31t31.5 13q19 0 31.5 -13t12.5 -31q0 -19 -13 -32.5t-31 -13.5t-31.5 13.5z" />
    <glyph glyph-name="uni1EE6" unicode="&#x1ee6;" horiz-adv-x="687" 
d="M202 22.5q-56 32.5 -79.5 96.5t-23.5 166v255q0 51 -14 75.5t-56 24.5h-20v20h90q37 0 55.5 -9.5t26.5 -34.5t8 -76v-285q0 -111 41 -168t136 -57q76 0 120.5 27t63.5 82t19 146v375h40v-375q0 -104 -22 -167.5t-77.5 -95.5t-155.5 -32q-96 0 -152 32.5zM351.5 745.5
q5.5 14.5 15.5 31.5q5 9 9 17.5t4 16.5q0 14 -8.5 22t-24.5 8q-20 0 -31.5 -11t-16.5 -39l-42 1q0 40 24.5 63t65.5 23q33 0 58.5 -14.5t25.5 -42.5q0 -13 -6 -23.5t-18 -24.5q-14 -16 -22 -29.5t-9 -32.5h-31q1 20 6.5 34.5z" />
    <glyph glyph-name="uni1EE7" unicode="&#x1ee7;" horiz-adv-x="535" 
d="M120.5 30q-47.5 40 -47.5 140v180q0 51 -14 75.5t-56 24.5h-10v20h80q37 0 55.5 -9.5t26.5 -34.5t8 -76v-180q0 -70 31.5 -102.5t78.5 -32.5q53 0 100 53v382h90v-470h-50l-35 40h-5q-21 -21 -54.5 -35.5t-75.5 -14.5q-75 0 -122.5 40zM275.5 555.5q5.5 14.5 15.5 31.5
q5 9 9 17.5t4 16.5q0 14 -8.5 22t-24.5 8q-20 0 -31.5 -11t-16.5 -39l-42 1q0 40 24.5 63t65.5 23q33 0 58.5 -14.5t25.5 -42.5q0 -13 -6 -23.5t-18 -24.5q-14 -16 -22 -29.5t-9 -32.5h-31q1 20 6.5 34.5z" />
    <glyph glyph-name="uni1EE8" unicode="&#x1ee8;" horiz-adv-x="687" 
d="M609 636v-351q0 -104 -22 -167.5t-77.5 -95.5t-155.5 -32q-96 0 -152 32.5t-79.5 96.5t-23.5 166v255q0 51 -14 75.5t-56 24.5h-20v20h90q37 0 55.5 -9.5t26.5 -34.5t8 -76v-285q0 -111 41 -168t136 -57q76 0 120.5 27t63.5 82t19 146v375h7q50 0 75 31t25 73h57
q0 -115 -124 -128zM316 705l40 130h95l-95 -130h-40z" />
    <glyph glyph-name="uni1EE9" unicode="&#x1ee9;" horiz-adv-x="535" 
d="M463 445v-445h-50l-35 40h-5q-21 -21 -54.5 -35.5t-75.5 -14.5q-75 0 -122.5 40t-47.5 140v180q0 51 -14 75.5t-56 24.5h-10v20h80q37 0 55.5 -9.5t26.5 -34.5t8 -76v-180q0 -70 31.5 -102.5t78.5 -32.5q53 0 100 53v382h69q50 0 75 31t25 73h57q0 -121 -136 -129z
M240 515l40 130h95l-95 -130h-40z" />
    <glyph glyph-name="uni1EEA" unicode="&#x1eea;" horiz-adv-x="687" 
d="M609 636v-351q0 -104 -22 -167.5t-77.5 -95.5t-155.5 -32q-96 0 -152 32.5t-79.5 96.5t-23.5 166v255q0 51 -14 75.5t-56 24.5h-20v20h90q37 0 55.5 -9.5t26.5 -34.5t8 -76v-285q0 -111 41 -168t136 -57q76 0 120.5 27t63.5 82t19 146v375h7q50 0 75 31t25 73h57
q0 -115 -124 -128zM334 705l-95 130h95l40 -130h-40z" />
    <glyph glyph-name="uni1EEB" unicode="&#x1eeb;" horiz-adv-x="535" 
d="M463 445v-445h-50l-35 40h-5q-21 -21 -54.5 -35.5t-75.5 -14.5q-75 0 -122.5 40t-47.5 140v180q0 51 -14 75.5t-56 24.5h-10v20h80q37 0 55.5 -9.5t26.5 -34.5t8 -76v-180q0 -70 31.5 -102.5t78.5 -32.5q53 0 100 53v382h69q50 0 75 31t25 73h57q0 -121 -136 -129z
M258 515l-95 130h95l40 -130h-40z" />
    <glyph glyph-name="uni1EEC" unicode="&#x1eec;" horiz-adv-x="687" 
d="M609 636v-351q0 -104 -22 -167.5t-77.5 -95.5t-155.5 -32q-96 0 -152 32.5t-79.5 96.5t-23.5 166v255q0 51 -14 75.5t-56 24.5h-20v20h90q37 0 55.5 -9.5t26.5 -34.5t8 -76v-285q0 -111 41 -168t136 -57q76 0 120.5 27t63.5 82t19 146v375h7q50 0 75 31t25 73h57
q0 -115 -124 -128zM351.5 745.5q5.5 14.5 15.5 31.5q5 9 9 17.5t4 16.5q0 14 -8.5 22t-24.5 8q-20 0 -31.5 -11t-16.5 -39l-42 1q0 40 24.5 63t65.5 23q33 0 58.5 -14.5t25.5 -42.5q0 -13 -6 -23.5t-18 -24.5q-14 -16 -22 -29.5t-9 -32.5h-31q1 20 6.5 34.5z" />
    <glyph glyph-name="uni1EED" unicode="&#x1eed;" horiz-adv-x="535" 
d="M463 445v-445h-50l-35 40h-5q-21 -21 -54.5 -35.5t-75.5 -14.5q-75 0 -122.5 40t-47.5 140v180q0 51 -14 75.5t-56 24.5h-10v20h80q37 0 55.5 -9.5t26.5 -34.5t8 -76v-180q0 -70 31.5 -102.5t78.5 -32.5q53 0 100 53v382h69q50 0 75 31t25 73h57q0 -121 -136 -129z
M275.5 555.5q5.5 14.5 15.5 31.5q5 9 9 17.5t4 16.5q0 14 -8.5 22t-24.5 8q-20 0 -31.5 -11t-16.5 -39l-42 1q0 40 24.5 63t65.5 23q33 0 58.5 -14.5t25.5 -42.5q0 -13 -6 -23.5t-18 -24.5q-14 -16 -22 -29.5t-9 -32.5h-31q1 20 6.5 34.5z" />
    <glyph glyph-name="uni1EEE" unicode="&#x1eee;" horiz-adv-x="687" 
d="M609 636v-351q0 -104 -22 -167.5t-77.5 -95.5t-155.5 -32q-96 0 -152 32.5t-79.5 96.5t-23.5 166v255q0 51 -14 75.5t-56 24.5h-20v20h90q37 0 55.5 -9.5t26.5 -34.5t8 -76v-285q0 -111 41 -168t136 -57q76 0 120.5 27t63.5 82t19 146v375h7q50 0 75 31t25 73h57
q0 -115 -124 -128zM245.5 819.5q14.5 21.5 45.5 21.5q15 0 27.5 -5.5t27.5 -15.5q3 -2 13 -7.5t19 -8.5t18 -3q11 0 20.5 14t9.5 26h30q0 -52 -14.5 -73.5t-45.5 -21.5q-14 0 -26.5 5t-27.5 15q-17 10 -27.5 15t-23.5 5q-11 0 -20.5 -14t-9.5 -26h-30q0 52 14.5 73.5z" />
    <glyph glyph-name="uni1EEF" unicode="&#x1eef;" horiz-adv-x="535" 
d="M463 445v-445h-50l-35 40h-5q-21 -21 -54.5 -35.5t-75.5 -14.5q-75 0 -122.5 40t-47.5 140v180q0 51 -14 75.5t-56 24.5h-10v20h80q37 0 55.5 -9.5t26.5 -34.5t8 -76v-180q0 -70 31.5 -102.5t78.5 -32.5q53 0 100 53v382h69q50 0 75 31t25 73h57q0 -121 -136 -129z
M169.5 629.5q14.5 21.5 45.5 21.5q15 0 27.5 -5.5t27.5 -15.5q3 -2 13 -7.5t19 -8.5t18 -3q11 0 20.5 14t9.5 26h30q0 -52 -14.5 -73.5t-45.5 -21.5q-14 0 -26.5 5t-27.5 15q-17 10 -27.5 15t-23.5 5q-11 0 -20.5 -14t-9.5 -26h-30q0 52 14.5 73.5z" />
    <glyph glyph-name="uni1EF0" unicode="&#x1ef0;" horiz-adv-x="687" 
d="M609 636v-351q0 -104 -22 -167.5t-77.5 -95.5t-155.5 -32q-96 0 -152 32.5t-79.5 96.5t-23.5 166v255q0 51 -14 75.5t-56 24.5h-20v20h90q37 0 55.5 -9.5t26.5 -34.5t8 -76v-285q0 -111 41 -168t136 -57q76 0 120.5 27t63.5 82t19 146v375h7q50 0 75 31t25 73h57
q0 -115 -124 -128zM312.5 -143.5q-13.5 13.5 -13.5 32.5q0 18 13.5 31t31.5 13q19 0 31.5 -13t12.5 -31q0 -19 -13 -32.5t-31 -13.5t-31.5 13.5z" />
    <glyph glyph-name="uni1EF1" unicode="&#x1ef1;" horiz-adv-x="535" 
d="M463 445v-445h-50l-35 40h-5q-21 -21 -54.5 -35.5t-75.5 -14.5q-75 0 -122.5 40t-47.5 140v180q0 51 -14 75.5t-56 24.5h-10v20h80q37 0 55.5 -9.5t26.5 -34.5t8 -76v-180q0 -70 31.5 -102.5t78.5 -32.5q53 0 100 53v382h69q50 0 75 31t25 73h57q0 -121 -136 -129z
M236.5 -143.5q-13.5 13.5 -13.5 32.5q0 18 13.5 31t31.5 13q19 0 31.5 -13t12.5 -31q0 -19 -13 -32.5t-31 -13.5t-31.5 13.5z" />
    <glyph glyph-name="Ygrave" unicode="&#x1ef2;" horiz-adv-x="628" 
d="M290 273l-170 257q-26 37 -44 58t-42.5 35.5t-58.5 16.5v20h90q50 0 84 -29.5t66 -80.5l145 -225l209 335h45l-234 -380v-280h-90v273zM304 705l-95 130h95l40 -130h-40z" />
    <glyph glyph-name="ygrave" unicode="&#x1ef3;" horiz-adv-x="514" 
d="M105 -170q49 0 80.5 22.5t54.5 82.5l20 55l-160 390q-28 72 -110 80v20h85q87 0 120 -80l114 -277l126 347h50l-195 -535q-29 -79 -64 -107t-91 -28h-30v30zM247 515l-95 130h95l40 -130h-40z" />
    <glyph glyph-name="uni1EF4" unicode="&#x1ef4;" horiz-adv-x="628" 
d="M290 273l-170 257q-26 37 -44 58t-42.5 35.5t-58.5 16.5v20h90q50 0 84 -29.5t66 -80.5l145 -225l209 335h45l-234 -380v-280h-90v273zM282.5 -143.5q-13.5 13.5 -13.5 32.5q0 18 13.5 31t31.5 13q19 0 31.5 -13t12.5 -31q0 -19 -13 -32.5t-31 -13.5t-31.5 13.5z" />
    <glyph glyph-name="uni1EF5" unicode="&#x1ef5;" horiz-adv-x="514" 
d="M105 -170q49 0 80.5 22.5t54.5 82.5l20 55l-160 390q-28 72 -110 80v20h85q87 0 120 -80l114 -277l126 347h50l-195 -535q-29 -79 -64 -107t-91 -28h-30v30zM329.5 -143.5q-13.5 13.5 -13.5 32.5q0 18 13.5 31t31.5 13q19 0 31.5 -13t12.5 -31q0 -19 -13 -32.5t-31 -13.5
t-31.5 13.5z" />
    <glyph glyph-name="uni1EF6" unicode="&#x1ef6;" horiz-adv-x="628" 
d="M290 273l-170 257q-26 37 -44 58t-42.5 35.5t-58.5 16.5v20h90q50 0 84 -29.5t66 -80.5l145 -225l209 335h45l-234 -380v-280h-90v273zM321.5 745.5q5.5 14.5 15.5 31.5q5 9 9 17.5t4 16.5q0 14 -8.5 22t-24.5 8q-20 0 -31.5 -11t-16.5 -39l-42 1q0 40 24.5 63t65.5 23
q33 0 58.5 -14.5t25.5 -42.5q0 -13 -6 -23.5t-18 -24.5q-14 -16 -22 -29.5t-9 -32.5h-31q1 20 6.5 34.5z" />
    <glyph glyph-name="uni1EF7" unicode="&#x1ef7;" horiz-adv-x="514" 
d="M105 -170q49 0 80.5 22.5t54.5 82.5l20 55l-160 390q-28 72 -110 80v20h85q87 0 120 -80l114 -277l126 347h50l-195 -535q-29 -79 -64 -107t-91 -28h-30v30zM264.5 555.5q5.5 14.5 15.5 31.5q5 9 9 17.5t4 16.5q0 14 -8.5 22t-24.5 8q-20 0 -31.5 -11t-16.5 -39l-42 1
q0 40 24.5 63t65.5 23q33 0 58.5 -14.5t25.5 -42.5q0 -13 -6 -23.5t-18 -24.5q-14 -16 -22 -29.5t-9 -32.5h-31q1 20 6.5 34.5z" />
    <glyph glyph-name="uni1EF8" unicode="&#x1ef8;" horiz-adv-x="628" 
d="M290 273l-170 257q-26 37 -44 58t-42.5 35.5t-58.5 16.5v20h90q50 0 84 -29.5t66 -80.5l145 -225l209 335h45l-234 -380v-280h-90v273zM215.5 819.5q14.5 21.5 45.5 21.5q15 0 27.5 -5.5t27.5 -15.5q3 -2 13 -7.5t19 -8.5t18 -3q11 0 20.5 14t9.5 26h30
q0 -52 -14.5 -73.5t-45.5 -21.5q-14 0 -26.5 5t-27.5 15q-17 10 -27.5 15t-23.5 5q-11 0 -20.5 -14t-9.5 -26h-30q0 52 14.5 73.5z" />
    <glyph glyph-name="uni1EF9" unicode="&#x1ef9;" horiz-adv-x="514" 
d="M105 -170q49 0 80.5 22.5t54.5 82.5l20 55l-160 390q-28 72 -110 80v20h85q87 0 120 -80l114 -277l126 347h50l-195 -535q-29 -79 -64 -107t-91 -28h-30v30zM158.5 629.5q14.5 21.5 45.5 21.5q15 0 27.5 -5.5t27.5 -15.5q3 -2 13 -7.5t19 -8.5t18 -3q11 0 20.5 14t9.5 26
h30q0 -52 -14.5 -73.5t-45.5 -21.5q-14 0 -26.5 5t-27.5 15q-17 10 -27.5 15t-23.5 5q-11 0 -20.5 -14t-9.5 -26h-30q0 52 14.5 73.5z" />
    <glyph glyph-name="endash" unicode="&#x2013;" horiz-adv-x="610" 
d="M70 230v60h470v-60h-470z" />
    <glyph glyph-name="emdash" unicode="&#x2014;" horiz-adv-x="872" 
d="M66 230v60h740v-60h-740z" />
    <glyph glyph-name="quoteleft" unicode="&#x2018;" horiz-adv-x="226" 
d="M68.5 443.5q-17.5 18.5 -17.5 51.5q0 123 110 185l10 -15q-40 -27 -60 -59.5t-20 -75.5l30 10q23 0 39 -16t16 -39q0 -26 -17 -43t-43 -17q-30 0 -47.5 18.5z" />
    <glyph glyph-name="quoteright" unicode="&#x2019;" horiz-adv-x="228" 
d="M62 440q40 27 60 59.5t20 75.5l-30 -10q-23 0 -39 16t-16 39q0 26 17 43t43 17q30 0 47.5 -18.5t17.5 -51.5q0 -123 -110 -185z" />
    <glyph glyph-name="quotesinglbase" unicode="&#x201a;" horiz-adv-x="237" 
d="M61 -140q40 27 60 59.5t20 75.5l-30 -10q-23 0 -39 16t-16 39q0 26 17 43t43 17q30 0 47.5 -18.5t17.5 -51.5q0 -123 -110 -185z" />
    <glyph glyph-name="quotedblleft" unicode="&#x201c;" horiz-adv-x="406" 
d="M68.5 443.5q-17.5 18.5 -17.5 51.5q0 123 110 185l10 -15q-40 -27 -60 -59.5t-20 -75.5l30 10q23 0 39 -16t16 -39q0 -26 -17 -43t-43 -17q-30 0 -47.5 18.5zM248.5 443.5q-17.5 18.5 -17.5 51.5q0 123 110 185l10 -15q-40 -27 -60 -59.5t-20 -75.5l30 10q23 0 39 -16
t16 -39q0 -26 -17 -43t-43 -17q-30 0 -47.5 18.5z" />
    <glyph glyph-name="quotedblright" unicode="&#x201d;" horiz-adv-x="408" 
d="M62 440q40 27 60 59.5t20 75.5l-30 -10q-23 0 -39 16t-16 39q0 26 17 43t43 17q30 0 47.5 -18.5t17.5 -51.5q0 -123 -110 -185zM242 440q40 27 60 59.5t20 75.5l-30 -10q-23 0 -39 16t-16 39q0 26 17 43t43 17q30 0 47.5 -18.5t17.5 -51.5q0 -123 -110 -185z" />
    <glyph glyph-name="quotedblbase" unicode="&#x201e;" horiz-adv-x="417" 
d="M61 -140q40 27 60 59.5t20 75.5l-30 -10q-23 0 -39 16t-16 39q0 26 17 43t43 17q30 0 47.5 -18.5t17.5 -51.5q0 -123 -110 -185zM241 -140q40 27 60 59.5t20 75.5l-30 -10q-23 0 -39 16t-16 39q0 26 17 43t43 17q30 0 47.5 -18.5t17.5 -51.5q0 -123 -110 -185z" />
    <glyph glyph-name="dagger" unicode="&#x2020;" horiz-adv-x="523" 
d="M216 -190v600h-189v60h189v210h90v-210h190v-60h-190v-600h-90z" />
    <glyph glyph-name="daggerdbl" unicode="&#x2021;" horiz-adv-x="555" 
d="M232 -190v210h-189v60h189v330h-189v60h189v210h90v-210h190v-60h-190v-330h190v-60h-190v-210h-90z" />
    <glyph glyph-name="bullet" unicode="&#x2022;" horiz-adv-x="340" 
d="M83.5 243.5q-33.5 33.5 -33.5 86.5t33.5 86.5t86.5 33.5t86.5 -33.5t33.5 -86.5t-33.5 -86.5t-86.5 -33.5t-86.5 33.5z" />
    <glyph glyph-name="ellipsis" unicode="&#x2026;" horiz-adv-x="640" 
d="M72 2q-16 16 -16 39q0 22 16 38t38 16q23 0 38.5 -16t15.5 -38q0 -23 -16 -39t-38 -16t-38 16zM282 2q-16 16 -16 39q0 22 16 38t38 16q23 0 38.5 -16t15.5 -38q0 -23 -16 -39t-38 -16t-38 16zM492 2q-16 16 -16 39q0 22 16 38t38 16q23 0 38.5 -16t15.5 -38
q0 -23 -16 -39t-38 -16t-38 16z" />
    <glyph glyph-name="perthousand" unicode="&#x2030;" horiz-adv-x="1006" 
d="M75.5 430.5q-38.5 35.5 -38.5 99.5t38.5 99.5t106.5 35.5t106.5 -35.5t38.5 -99.5t-38.5 -99.5t-106.5 -35.5t-106.5 35.5zM77 0l455 660h75l-455 -660h-75zM267 530q0 100 -85 100t-85 -100t85 -100t85 100zM395.5 30.5q-38.5 35.5 -38.5 99.5t38.5 99.5t106.5 35.5
t106.5 -35.5t38.5 -99.5t-38.5 -99.5t-106.5 -35.5t-106.5 35.5zM725.5 30.5q-38.5 35.5 -38.5 99.5t38.5 99.5t106.5 35.5t106.5 -35.5t38.5 -99.5t-38.5 -99.5t-106.5 -35.5t-106.5 35.5zM587 130q0 100 -85 100t-85 -100t85 -100t85 100zM917 130q0 100 -85 100t-85 -100
t85 -100t85 100z" />
    <glyph glyph-name="guilsinglleft" unicode="&#x2039;" horiz-adv-x="302" 
d="M209 30l-175 195l175 195h40l-110 -195l110 -195h-40z" />
    <glyph glyph-name="guilsinglright" unicode="&#x203a;" horiz-adv-x="302" 
d="M53 30l110 195l-110 195h40l175 -195l-175 -195h-40z" />
    <glyph glyph-name="fraction" unicode="&#x2044;" horiz-adv-x="420" 
d="M-50 0l455 660h65l-455 -660h-65z" />
    <glyph glyph-name="uni2074" unicode="&#x2074;" horiz-adv-x="325" 
d="M182 356v78h-152v19l157 207h47v-204h41v-22h-41v-78h-52zM64 456h118v155z" />
    <glyph glyph-name="Euro" unicode="&#x20ac;" horiz-adv-x="728" 
d="M261 15.5q-65 35.5 -105.5 97.5t-52.5 142h-75l10 40h60v60h-55l10 40h52q14 81 58 146t108 102t137 37q80 0 140.5 -22.5t89.5 -57.5q17 -21 21 -55.5t4 -94.5h-20q-19 97 -70 143.5t-135 46.5q-95 0 -158 -58t-78 -187h201l-10 -40h-195v-60h190l-10 -40h-176
q16 -104 74 -169.5t162 -65.5q73 0 127.5 35t97.5 105l20 -15q-46 -90 -113.5 -127.5t-161.5 -37.5q-82 0 -147 35.5z" />
    <glyph glyph-name="uni20AE" unicode="&#x20ae;" horiz-adv-x="583" 
d="M346 620v-216l135 26v-40l-135 -26v-60l135 26v-40l-135 -26v-264h-90v246l-135 -26v40l135 26v60l-135 -26v40l135 26v234h-90q-125 0 -125 -115h-20v75q0 80 85 80h465v-40h-225z" />
    <glyph glyph-name="uni20B4" unicode="&#x20b4;" horiz-adv-x="526" 
d="M483 192v-77q0 -27 -23 -58t-71.5 -52.5t-120.5 -21.5q-99 0 -156.5 37.5t-57.5 102.5q0 38 20 69.5t60 65.5h-65v40h116q10 7 18 13t14 10q7 6 13 10t10 7h-171v40h225q39 32 57 67t18 76q0 56 -31.5 86.5t-80.5 30.5q-66 0 -107.5 -39.5t-57.5 -127.5h-18v70
q0 23 20.5 55t65 57t112.5 25q52 0 96 -19t70.5 -54t26.5 -81q0 -43 -17 -74t-63 -72h84v-40h-132q-7 -5 -16.5 -12.5t-21.5 -16.5l-17 -11h187v-40h-242q-42 -34 -57 -63.5t-15 -66.5q0 -51 37 -78t100 -27q70 0 113 40.5t60 128.5h18z" />
    <glyph glyph-name="uni20B8" unicode="&#x20b8;" horiz-adv-x="583" 
d="M21 620v40h550v-40h-550zM256 530h-90q-125 0 -125 -115h-20v75q0 80 85 80h465v-40h-225v-530h-90v530z" />
    <glyph glyph-name="uni20BD" unicode="&#x20bd;" horiz-adv-x="552" 
d="M196 270v-60h117v-40h-117v-170h-90v170h-73v40h73v60h-73v40h73v230q0 51 -14 75.5t-56 24.5h-20v20h260q96 0 173 -41t77 -159q0 -78 -40 -120t-89.5 -56t-90.5 -14h-110zM196 315q40 -10 75 -10q32 0 68 16.5t61.5 52.5t25.5 91t-25.5 91t-61.5 52.5t-68 16.5
q-35 0 -75 -10v-300z" />
    <glyph glyph-name="uni2116" unicode="&#x2116;" horiz-adv-x="981" 
d="M697 435.5q-38 35.5 -38 99.5t38 99.5t107 35.5t107 -35.5t38 -99.5t-38 -99.5t-107 -35.5t-107 35.5zM154 525v-525h-40v540q0 48 -20.5 74t-69.5 26h-10v20h65q46 0 78 -15t57 -45l350 -435v495h40v-670h-20zM889 535q0 100 -85 100t-85 -100t85 -100t85 100zM684 310
v40h240v-40h-240z" />
    <glyph glyph-name="trademark" unicode="&#x2122;" horiz-adv-x="885" 
d="M184 630h-38q-35 0 -56.5 -19.5t-21.5 -55.5h-15v45q0 60 56 60h273v-30h-131v-323h-67v323zM740 324.5q-29 32.5 -29 95.5v162l-123 -275h-15l-127 282v-282h-30v353h71l112 -248l112 248h67v-240q0 -45 16.5 -79t43.5 -34v-15q-69 0 -98 32.5z" />
    <glyph glyph-name="uni2215" unicode="&#x2215;" horiz-adv-x="440" 
d="M23 0l321 660h73l-321 -660h-73z" />
    <glyph glyph-name="uni0306.case" horiz-adv-x="0" 
d="M-260 790l20 15q36 -45 110 -45t110 45l20 -15q-40 -90 -130 -90t-130 90z" />
    <glyph glyph-name="brevecombcy" horiz-adv-x="0" 
d="M-360 601l20 15q20 -20 45 -30t65 -10t65 10t45 30l20 -15q-44 -80 -130 -80t-130 80z" />
    <glyph glyph-name="brevecombcy.case" horiz-adv-x="0" 
d="M-360 800l20 15q36 -45 110 -45t110 45l20 -15q-40 -90 -130 -90t-130 90z" />
    </font>
</defs>
</svg>
